У пошуках Немо / Finding Nemo (2003) mini 1080p H.265 Ukr/Eng | Sub Ukr/Eng

Нові коментарі

Нова тема   Відповісти
Автор Повідомлення
ukr_anonymous 
Попереджень: 1
Попереджень: 1 


З нами з: 16.04.18
Востаннє: 17.11.19
Повідомлень: 234

2018-08-29 10:07  
У пошуках Немо / Finding Nemo (2003) mini 1080p H.265 Ukr/Eng | Sub Ukr/Eng

У пошуках Немо / Finding Nemo (2003) mini 1080p H.265 Ukr/Eng | Sub Ukr/Eng


Жанр: анімація, пригодницький, комедія, сімейний
Країна: Австралія, США



Кінокомпанія: Walt Disney Pictures, Pixar Animation Studios, Disney Enterprises
Режисер: Ендрю Стентон / Andrew Stanton, Лі Анкріч / Lee Unkrich
Актори: Альберт Брукс / Albert Brooks, Еллен ДеДженерес / Ellen DeGeneres, Александр Ґулд / Alexander Gould, Віллем Дефо / Willem Dafoe, Бред Геррет / Brad Garrett, Еллісон Дженні / Allison Janney, Остін Пендлтон / Austin Pendleton, Стівен Рут / Stephen Root, Віккі Льюїс / Vicki Lewis, Джо Ренфт / Joe Ranft, Джеффрі Раш / Geoffrey Rush, Ендрю Стентон / Andrew Stanton, Елізабет Перкінс / Elizabeth Perkins, Нічолас Бірд / Nicholas Bird, Боб Пітерсон / Bob Peterson, Ерік Бана / Eric Bana

Сюжет:
В сім'ї рибок-клоунів Марліна і Корал трапляється лихо: риба-хижак нападає на них і з'їдає Корал - дружину Марліна й всю їхню ікру. У Марліна лишається лише одна ікринка. З неї народжується Немо. Свого єдиного сина Марлін дуже оберігає, намагаючись убезпечити його від усіх небезпек океану. Але от приходить час і Немо відправляється в школу для маленьких рибок. Його невгамовна допитливість та впертість приводять до того, що Немо стає жертвою любителя підводного плавання й він опиняється в акваріумі стоматолога, що мешкає у Сіднеї.

Батько відправляється на пошуки єдиної рідної душі. На своєму шляху головні герої зустрічають безліч харизматичних героїв, які допомагають їм зустрітися і знову об'єднати родину.


Тривалість: 01:40:54
Якість:
Відео:
кодек: H.265 (HEVC)
розмір кадру: 1920 x 1080
бітрейт: 5 001 кб/с
бітова глибина: 10 біт
Увага! Перед завантаженням переконайтесь, що ваш пристрій відтворення (та/або ПЗ) підтримує H.265 (HEVC)

Аудіо # 1:
мова: українська
переклад: професійний дубльований
кодек: 5.1
бітрейт: 640 кб/с

Аудіо # 2:
мова: англійська
переклад: оригінал
кодек: 5.1
бітрейт: 640 кб/с

Субтитри # 1:
мова: українська (Full)
тип: програмні (м'які)
формат: *.srt

Субтитри # 2-3:
мова: англійська (Full, SDH)
тип: програмні (м'які)
формат: *.srt
Info
Код:
General
Unique ID                                : 196418856346857494337548204838652625530 (0x93C4E54D1FC6BAD8B74AC363EC6E427A)
Complete name                            : E:\Video\Finding Nemo (2003) 1080p H.265 [UKR_ENG].
Format                                   :
Format version                           : Version 4 / Version 2
File size                                : 4.43 GiB
Duration                                 : 1 h 40 min
Overall bit rate                         : 6 286 kb/s
Movie name                               : Finding Nemo (2003)
Encoded date                             : UTC 2018-08-28 08:53:46
Writing application                      : v20.0.0 ('I Am The Sun') 32-bit
Writing library                          : libebml v1.3.5 + v1.4.8
Cover                                    : Yes
Attachments                              : Cover.jpg

Video
ID                                       : 1
Format                                   : HEVC
Format/Info                              : High Efficiency Video Coding
Format profile                           : Main [email protected]@Main
Codec ID                                 : V_MPEGH/ISO/HEVC
Duration                                 : 1 h 40 min
Bit rate                                 : 5 001 kb/s
Width                                    : 1 920 pixels
Height                                   : 1 080 pixels
Display aspect ratio                     : 16:9
Frame rate mode                          : Constant
Frame rate                               : 23.976 (24000/1001) FPS
Color space                              : YUV
Chroma subsampling                       : 4:2:0
Bit depth                                : 10 bits
Bits/(Pixel*Frame)                       : 0.101
Stream size                              : 3.52 GiB (80%)
Writing library                          : x265 2.5+22-8db95a1da9f8:[Windows][GCC 7.1.0][64 bit] 10bit
Encoding settings                        : cpuid=1173503 / frame-threads=3 / numa-pools=8 / wpp / no-pmode / no-pme / no-psnr / no-ssim / log-level=2 / input-csp=1 / input-res=1920x1080 / interlace=0 / total-frames=145150 / level-idc=0 / high-tier=1 / uhd-bd=0 / ref=4 / no-allow-non-conformance / no-repeat-headers / annexb / no-aud / no-hrd / info / hash=0 / no-temporal-layers / open-gop / min-keyint=23 / keyint=250 / bframes=4 / b-adapt=2 / b-pyramid / bframe-bias=0 / rc-lookahead=25 / lookahead-slices=4 / scenecut=40 / no-intra-refresh / ctu=64 / min-cu-size=8 / rect / no-amp / max-tu-size=32 / tu-inter-depth=1 / tu-intra-depth=1 / limit-tu=0 / rdoq-level=2 / dynamic-rd=0.00 / no-ssim-rd / signhide / no-tskip / nr-intra=0 / nr-inter=0 / no-constrained-intra / strong-intra-smoothing / max-merge=3 / limit-refs=3 / limit-modes / me=3 / subme=3 / merange=57 / temporal-mvp / weightp / no-weightb / no-analyze-src-pics / deblock=0:0 / sao / no-sao-non-deblock / rd=4 / no-early-skip / rskip / no-fast-intra / no-tskip-fast / no-cu-lossless / no-b-intra / no-splitrd-skip / rdpenalty=0 / psy-rd=2.00 / psy-rdoq=1.00 / no-rd-refine / analysis-reuse-mode=0 / no-lossless / cbqpoffs=0 / crqpoffs=0 / rc=abr / bitrate=5000 / qcomp=0.60 / qpstep=4 / stats-write=0 / stats-read=2 / cplxblur=20.0 / qblur=0.5 / ipratio=1.40 / pbratio=1.30 / aq-mode=2 / aq-strength=1.00 / cutree / zone-count=0 / no-strict-cbr / qg-size=32 / no-rc-grain / qpmax=69 / qpmin=0 / no-const-vbv / sar=0 / overscan=0 / videoformat=5 / range=0 / colorprim=2 / transfer=2 / colormatrix=2 / chromaloc=0 / display-window=0 / max-cll=0,0 / min-luma=0 / max-luma=1023 / log2-max-poc-lsb=8 / vui-timing-info / vui-hrd-info / slices=1 / opt-qp-pps / opt-ref-list-length-pps / no-multi-pass-opt-rps / scenecut-bias=0.05 / no-opt-cu-delta-qp / no-aq-motion / no-hdr / no-hdr-opt / no-dhdr10-opt / analysis-reuse-level=5 / scale-factor=0 / refine-intra=0 / refine-inter=0 / refine-mv=0 / no-limit-sao / ctu-info=0
Default                                  : Yes
Forced                                   : No

Audio #1
ID                                       : 2
Format                                   : AC-3
Format/Info                              : Audio Coding 3
Codec ID                                 : A_AC3
Duration                                 : 1 h 40 min
Bit rate mode                            : Constant
Bit rate                                 : 640 kb/s
Channel(s)                               : 6 channels
Channel positions                        : Front: L C R, Side: L R, LFE
Sampling rate                            : 48.0 kHz
Frame rate                               : 31.250 FPS (1536 SPF)
Bit depth                                : 16 bits
Compression mode                         : Lossy
Stream size                              : 462 MiB (10%)
Title                                    : 5.1; 640 kbps; професійний дубльований {LeDoyen Studio}
Language                                 : Ukrainian
Service kind                             : Complete Main
Default                                  : Yes
Forced                                   : No

Audio #2
ID                                       : 3
Format                                   : AC-3
Format/Info                              : Audio Coding 3
Codec ID                                 : A_AC3
Duration                                 : 1 h 40 min
Bit rate mode                            : Constant
Bit rate                                 : 640 kb/s
Channel(s)                               : 6 channels
Channel positions                        : Front: L C R, Side: L R, LFE
Sampling rate                            : 48.0 kHz
Frame rate                               : 31.250 FPS (1536 SPF)
Bit depth                                : 16 bits
Compression mode                         : Lossy
Stream size                              : 462 MiB (10%)
Title                                    : 5.1; 640 kbps; original
Language                                 : English
Service kind                             : Complete Main
Default                                  : No
Forced                                   : No

Text #1
ID                                       : 4
Format                                   : UTF-8
Codec ID                                 : S_TEXT/UTF8
Codec ID/Info                            : UTF-8 Plain Text
Duration                                 : 1 h 39 min
Bit rate                                 : 84 b/s
Count of elements                        : 1484
Stream size                              : 61.3 KiB (0%)
Title                                    : full
Language                                 : Ukrainian
Default                                  : Yes
Forced                                   : No

Text #2
ID                                       : 5
Format                                   : UTF-8
Codec ID                                 : S_TEXT/UTF8
Codec ID/Info                            : UTF-8 Plain Text
Duration                                 : 1 h 36 min
Bit rate                                 : 76 b/s
Count of elements                        : 1876
Stream size                              : 54.2 KiB (0%)
Title                                    : full
Language                                 : English
Default                                  : No
Forced                                   : No

Text #3
ID                                       : 6
Format                                   : UTF-8
Codec ID                                 : S_TEXT/UTF8
Codec ID/Info                            : UTF-8 Plain Text
Duration                                 : 1 h 40 min
Bit rate                                 : 79 b/s
Count of elements                        : 2141
Stream size                              : 58.3 KiB (0%)
Title                                    : SDH
Language                                 : English
Default                                  : No
Forced                                   : No

Menu
00:00:00.000                             : :Chapter 01
00:04:18.716                             : :Chapter 02
00:05:35.668                             : :Chapter 03
00:11:17.802                             : :Chapter 04
00:12:16.277                             : :Chapter 05
00:14:08.847                             : :Chapter 06
00:16:29.279                             : :Chapter 07
00:18:50.337                             : :Chapter 08
00:25:31.988                             : :Chapter 09
00:30:54.227                             : :Chapter 10
00:33:01.646                             : :Chapter 11
00:36:11.836                             : :Chapter 12
00:40:19.166                             : :Chapter 13
00:44:58.278                             : :Chapter 14
00:48:12.389                             : :Chapter 15
00:51:28.418                             : :Chapter 16
00:56:07.030                             : :Chapter 17
01:00:55.902                             : :Chapter 18
01:05:20.666                             : :Chapter 19
01:07:02.101                             : :Chapter 20
01:08:30.147                             : :Chapter 21
01:13:19.436                             : :Chapter 22
01:14:15.200                             : :Chapter 23
01:16:00.097                             : :Chapter 24
01:18:41.299                             : :Chapter 25
01:21:57.621                             : :Chapter 26
01:24:29.481                             : :Chapter 27
01:26:54.334                             : :Chapter 28
01:29:26.611                             : :Chapter 29
01:30:51.362                             : :Chapter 30
01:32:42.974                             : :Chapter 31
01:33:24.265                             : :Chapter 32
Скріншоти




Джерело:
Особиста оцінка: 10 - без зайвих вагань рекомендую всім!
ЗАЛИШАЙТЕСЬ ЯКОМОГА ДОВШЕ НА РОЗДАЧІ!
ЗАВАНТАЖИВ САМ - ДАЙ ЗАВАНТАЖИТИ ІНШИМ


Срібний реліз (на рейтинг впливає 50% завантаженого)
 Трекер:    Зареєстрований   

Завантажити / скачати мультфільм українською



відео для новачків



 Зареєстрований:   2018-08-29 10:07
 Розмір:   4.43 GB 
 Оцінка мультфільму:   9.9/10 (Голосів: 12)
   
Інші релізи
Ваш часовий пояс: GMT + 2 Години

Нова тема   Відповісти