У полоні стихії / Adrift (2018)

Нові коментарі

Нова тема   Відповісти
Автор Повідомлення
Anonymous 







2018-08-29 09:41  
У полоні стихії / Adrift (2018)

У полоні стихії / Adrift (2018)
Інший варіант постера:



Жанр: бойовик, драма, мелодрама, пригодницький, трилер
Країна: США, Гонконг, Ісландія



Кінокомпанія: Huayi Brothers, Lakeshore Entertainment, RVK Studios, STX Entertainment
Режисер: Балтазар Кормакур / Baltasar Kormákur
Актори: Шейлін Вудлі / Shailene Woodley, Сем Клафлін / Sam Claflin, Джеффрі Томас / Jeffrey Thomas, Елізабет Хоторн / Elizabeth Hawthorne, Ґрейс Палмер / Grace Palmer, Тамі Ешкрафт / Tami Ashcraft та інші

Сюжет:
Сем Клафлін та Шейлін Вудлі у захоплюючій історії виживання від режисера Бальтазара Кормакура.

Їх несподівана зустріч на Таїті стала початком великого кохання. Молоді та вільні, вони вирушають у подорож Тихим океаном. Несподівано їх розкішна яхта потрапляє в один з найпотужніших ураганів в історії. Тепер не лише їх майбутнє, але і їх життя знаходиться у полоні стихії…
Офіційні українські трейлери:




Рейтинг MPAA: PG-13 - дітям до 13 років перегляд не бажаний
Вікова категорія (Україна): 16+

Тривалість: 01:36:47
Якість:
Відео:
кодек:
розмір кадру: 720x304
бітрейт: 1703 кб/с

Аудіо:
мова: українська
переклад: професійний дубльований | студія Postmodern
кодек: 5.1
бітрейт: 448 кб/с
Інформація про дубляж
Переклад: Надія Бойван
Режисер дубляжу: Катерина Брайковська
Звукорежисер: Денис Подляський
Звукорежисер перезапису: Юрій Антонов
Ролі дублювали: Марина Локтіонова, Дмитро Гаврилов, Михайло Кришталь, Олена Узлюк, Катерина Брайковська, Кирило Нікітенко та інші.

Фільм дубльовано компанією Postmodern на замовлення "Вольга Україна".
Info
Код:
General
Complete name               : Adrift (2018) [Ukr] [Hurtom].avi
Format                      : AVI
Format/Info                 : Audio Video Interleave
File size                   : 1.46 GiB
Duration                    : 1 h 36 min
Overall bit rate            : 2 160 kb/s
Movie name                  : У полоні стихії / Adrift (2018) [Ukr] [Hurtom]
Genre                       : бойовик, драма, мелодрама, пригодницький, трилер
Recorded date               : 30.08.2018
Writing application         : VirtualDubModUkr 1.5.10.2 (build 2542/release)
Writing library             : VirtualDubMod build 2542/release
Comment                     : https://toloka.to/t94704

Video
ID                          : 0
Format                      : MPEG-4 Visual
Format profile              : Advanced [email protected]
Format settings             : BVOP1 / Custom Matrix
Format settings, BVOP       : 1
Format settings, QPel       : No
Format settings, GMC        : No warppoints
Format settings, Matrix     : Custom
Codec ID                    :
Codec ID/Hint               :
Duration                    : 1 h 36 min
Bit rate                    : 1 703 kb/s
Width                       : 720 pixels
Height                      : 304 pixels
Display aspect ratio        : 2.35:1
Frame rate                  : 23.976 (24000/1001) FPS
Color space                 : YUV
Chroma subsampling          : 4:2:0
Bit depth                   : 8 bits
Scan type                   : Progressive
Compression mode            : Lossy
Bits/(Pixel*Frame)          : 0.324
Stream size                 : 1.15 GiB (79%)
Writing library             : 73

Audio
ID                          : 1
Format                      : AC-3
Format/Info                 : Audio Coding 3
Codec ID                    : 2000
Duration                    : 1 h 36 min
Bit rate mode               : Constant
Bit rate                    : 448 kb/s
Channel(s)                  : 6 channels
Channel positions           : Front: L C R, Side: L R, LFE
Sampling rate               : 48.0 kHz
Frame rate                  : 31.250 FPS (1536 SPF)
Bit depth                   : 16 bits
Compression mode            : Lossy
Stream size                 : 310 MiB (21%)
Alignment                   : Split accross interleaves
Interleave, duration        : 42  ms (1.00 video frame)
Interleave, preload duratio : 500  ms
Title                       : UKR DUB
Service kind                : Complete Main


Джерело: &
Подяка AngryBirdsUA та Hanway'ю за якісний український звук.

30.08.2018 реліз оновлено - замінено українську доріжку з 5.1 384 кб/с на якіснішу 5.1 448 кб/с


 Трекер:    Зареєстрований   

Завантажити / скачати фільм українською



відео для новачків



 Зареєстрований:   2018-08-30 10:05
 Розмір:   1.46 GB 
 Оцінка фільму:   9.1/10 (Голосів: 91)
   
Інші релізи
AngryBirdsUA 
Свій


З нами з: 24.02.10
Востаннє: 25.04.19
Повідомлень: 3147

2018-08-29 10:41  
є кращий звук куди ви всі женете так?
Anonymous 







2018-08-29 11:26  
AngryBirdsUA написано:
є кращий звук куди ви всі женете так?

телепатів же немає

vadiat 
Новенький


З нами з: 23.02.15
Востаннє: 19.04.19
Повідомлень: 1

2018-08-29 11:34  
А що зі звуком?
Anonymous 







2018-08-29 11:41  
vadiat, з ним все гаразд.
oleg5616 
Новенький


З нами з: 28.08.15
Востаннє: 25.04.19
Повідомлень: 5

2018-08-29 13:26  
Фільм доволі непоганий. Особисто мені, трохи не сподобались стрибки у часі (з майбутнього кидає в минуле) і так протягом усього фільму, як на мене краще би все ішло поступово. 7/10
alonzo 
VIP


З нами з: 30.08.15
Востаннє: 25.04.19
Повідомлень: 256

2018-08-29 19:22  
слабо дуже слабо , чекав реально більшого.
Anonymous 







2018-08-30 10:09  
Реліз оновлено - замінено українську доріжку на якіснішу.
jimtornado 
Новенький


З нами з: 15.04.16
Востаннє: 03.02.19
Повідомлень: 14

2018-08-31 04:29  
Тематичний фільм, проте реалістичний.
kozachka1971 
Новенький


З нами з: 15.04.14
Востаннє: 21.10.18
Повідомлень: 23

2018-08-31 19:57  
Дякую. Раджу до перегляду.
andriy_nv 
VIP


З нами з: 27.06.08
Востаннє: 25.04.19
Повідомлень: 860

2018-09-02 18:26  
цікавий фільм,
шкода що кінець не дуже щасливий
чому ж вони обоє не сховались всередині яхти? який сенс було перебувати назовні?
і спочатку також не подобались ті постійні стрибки у часі, але без них не вдалося б так показати цю історію

kasyanchuk_ny 
Новенький


З нами з: 07.08.11
Востаннє: 25.04.19
Повідомлень: 9

2018-09-07 21:30  
Фільм досить не поганий.
toma1408 
Поважний учасник


З нами з: 28.08.10
Востаннє: 21.04.19
Повідомлень: 185

2018-09-09 06:55  
Прохідний фільм. 6/10
katrusya5 
Новенький


З нами з: 13.02.18
Востаннє: 01.02.19
Повідомлень: 1

2018-09-09 20:27  
дуже крутий фiльм
tpolit 
VIP


З нами з: 10.01.15
Востаннє: 26.04.19
Повідомлень: 416

2018-09-09 21:04  
Хороше кіно. Дружині дуже сподобалося.
Ваш часовий пояс: GMT + 2 Години

Нова тема   Відповісти