У полоні стихії / Adrift (2018) 1080p Ukr/Eng | Sub Eng

Нові коментарі

Нова тема   Відповісти
Автор Повідомлення
staf777 
Попереджень: 1
Попереджень: 1 


З нами з: 16.11.16
Востаннє: 10.12.18
Повідомлень: 1887

2018-08-29 07:24  
У полоні стихії / Adrift (2018) 1080p Ukr/Eng | Sub Eng

У полоні стихії / Adrift (2018) 1080p Ukr/Eng | Sub Eng


Жанр: бойовик, драма, мелодрама, пригодницький, трилер
Країна: США



Кінокомпанія: Huayi Brothers, Lakeshore Entertainment, RVK Studios
Режисер: Балтазар Кормакур
Актори: Шейлін Вудлі, Сем Клафлін, Джеффрі Томас, Елізабет Хоторн, Зак Бересфорд, Ґрейс Палмер, Тамі Ешкрафт

Сюжет:
Сем Клафлін та Шейлін Вудлі у захоплюючій історії виживання від режисера Бальтасара Кормакура.

Їх несподівана зустріч на Таїті стала початком великого кохання. Молоді та вільні, вони вирушають у подорож Тихим океаном. Несподівано їх розкішна яхта потрапляє в один з найпотужніших ураганів в історії. Тепер не лише їх майбутнє, але і їх життя знаходиться у полоні стихії…


Тривалість: 01:36:47
Якість: 1080p
Відео:
кодек:
розмір кадру: 1920x804
бітрейт: 12,4 Мб/с

Аудіо # 1:
мова: українська
переклад: професійний дубльований | студія Postmodern
кодек: 5.1
бітрейт: 1509 кб/с

Аудіо # 2:
мова: українська
переклад: професійний дубльований | студія Postmodern
кодек: 5.1
бітрейт: 640 кб/с

Аудіо # 3:
мова: англійська
переклад: оригінал
кодек: 5.1
бітрейт: 640 кб/с

Субтитри:
мова: англійська
тип: програмні (м'які)
формат: *.srt
Info
General
Unique ID : 88591848840117178574889160628965494288 (0x42A62B6123B55CB2B5C7CB4580384E10)
Complete name : D:\Фільми в HD\Бойовик\Adrift (2018) 1080p [UKR_ENG][Hurtom].
Format :
Format version : Version 4 / Version 2
File size : 10.2 GiB
Duration : 1 h 36 min
Overall bit rate : 15.1 Mb/s
Movie name : Adrift (2018) 1080p [UKR_ENG][Hurtom]
Encoded date : UTC 2018-08-30 15:50:04
Writing application : v24.0.0 ('Beyond The Pale') 64-bit
Writing library : libebml v1.3.6 + v1.4.9
Cover : Yes
Attachments : cover.jpg

Video
ID : 1
Format : AVC
Format/Info : Advanced Video Codec
Format profile : [email protected]
Format settings : CABAC / 5 Ref Frames
Format settings, CABAC : Yes
Format settings, ReFrames : 5 frames
Codec ID : V_MPEG4/ISO/AVC
Duration : 1 h 36 min
Bit rate : 12.4 Mb/s
Width : 1 920 pixels
Height : 804 pixels
Display aspect ratio : 2.40:1
Frame rate mode : Constant
Frame rate : 23.976 (24000/1001) FPS
Color space : YUV
Chroma subsampling : 4:2:0
Bit depth : 8 bits
Scan type : Progressive
Bits/(Pixel*Frame) : 0.334
Stream size : 8.35 GiB (82%)
Writing library : core 148 r2705 3f5ed56
Encoding settings : cabac=1 / ref=5 / deblock=1:-2:-2 / analyse=0x3:0x133 / me=umh / subme=11 / psy=1 / psy_rd=1.20:0.04 / mixed_ref=1 / me_range=32 / chroma_me=1 / trellis=2 / 8x8dct=1 / cqm=0 / deadzone=21,11 / fast_pskip=0 / chroma_qp_offset=-3 / threads=12 / lookahead_threads=2 / sliced_threads=0 / nr=0 / decimate=0 / interlaced=0 / bluray_compat=0 / constrained_intra=0 / bframes=8 / b_pyramid=2 / b_adapt=2 / b_bias=0 / direct=3 / weightb=1 / open_gop=0 / weightp=2 / keyint=240 / keyint_min=23 / scenecut=40 / intra_refresh=0 / rc_lookahead=50 / rc=2pass / mbtree=0 / bitrate=12350 / ratetol=1.0 / qcomp=0.60 / qpmin=0 / qpmax=51 / qpstep=4 / cplxblur=20.0 / qblur=0.5 / vbv_maxrate=50000 / vbv_bufsize=62500 / nal_hrd=none / filler=0 / ip_ratio=1.40 / pb_ratio=1.30 / aq=3:0.80
Language : English
Default : Yes
Forced : No

Audio #1
ID : 2
Format :
Format/Info : Digital Theater Systems
Codec ID : A_DTS
Duration : 1 h 36 min
Bit rate mode : Constant
Bit rate : 1 509 kb/s
Channel(s) : 6 channels
Channel positions : Front: L C R, Side: L R, LFE
Sampling rate : 48.0 kHz
Frame rate : 93.750 FPS (512 SPF)
Bit depth : 24 bits
Compression mode : Lossy
Stream size : 1.02 GiB (10%)
Title : [UA-DUB-| студія Postmodern] 5.1
Language : Ukrainian
Default : Yes
Forced : Yes

Audio #2
ID : 3
Format : AC-3
Format/Info : Audio Coding 3
Codec ID : A_AC3
Duration : 1 h 36 min
Bit rate mode : Constant
Bit rate : 640 kb/s
Channel(s) : 6 channels
Channel positions : Front: L C R, Side: L R, LFE
Sampling rate : 48.0 kHz
Frame rate : 31.250 FPS (1536 SPF)
Bit depth : 16 bits
Compression mode : Lossy
Stream size : 443 MiB (4%)
Title : [UA-DUB-| студія Postmodern] 5.1
Language : Ukrainian
Service kind : Complete Main
Default : No
Forced : No

Audio #3
ID : 4
Format : AC-3
Format/Info : Audio Coding 3
Codec ID : A_AC3
Duration : 1 h 36 min
Bit rate mode : Constant
Bit rate : 640 kb/s
Channel(s) : 6 channels
Channel positions : Front: L C R, Side: L R, LFE
Sampling rate : 48.0 kHz
Frame rate : 31.250 FPS (1536 SPF)
Bit depth : 16 bits
Compression mode : Lossy
Stream size : 443 MiB (4%)
Title : Original
Language : English
Service kind : Complete Main
Default : No
Forced : No

Text
ID : 5
Format : UTF-8
Codec ID : S_TEXT/UTF8
Codec ID/Info : UTF-8 Plain Text
Duration : 1 h 27 min
Bit rate : 35 b/s
Count of elements : 913
Stream size : 22.6 KiB (0%)
Language : English
Default : No
Forced : No

Menu
00:00:00.000 : en:00:00:00.000
00:05:18.944 : en:00:05:18.944
00:08:04.401 : en:00:08:04.401
00:14:01.257 : en:00:14:01.257
00:19:38.010 : en:00:19:38.010
00:24:46.568 : en:00:24:46.568
00:29:42.572 : en:00:29:42.572
00:34:45.709 : en:00:34:45.709
00:37:20.947 : en:00:37:20.947
00:43:30.024 : en:00:43:30.024
00:49:43.564 : en:00:49:43.564
00:52:40.532 : en:00:52:40.532
00:58:12.447 : en:00:58:12.447
01:06:31.029 : en:01:06:31.029
01:11:19.650 : en:01:11:19.650
01:14:07.151 : en:01:14:07.151
01:18:06.974 : en:01:18:06.974
01:24:15.550 : en:01:24:15.550
01:27:22.446 : en:01:27:22.446
01:31:34.489 : en:01:31:34.489
Скріншоти



Подяка пану AngryBirdsUA за доріжку та пану Hanway за синхронізацію.
Джерело: &
Особиста оцінка: 0 - не дивився


 Трекер:    Зареєстрований   

Завантажити / скачати фільм українською



відео для новачків



 Зареєстрований:   2018-08-30 19:08
 Розмір:   10.24 GB 
 Оцінка фільму:   7.8/10 (Голосів: 22)
   
Інші релізи
   У полоні стихії / Adrift (2018) mini 1080p H.265 Ukr/Eng | Sub Eng -Star-Lord-  9 / 1   4.2 GB   2018-09-02 12:22 
   У полоні стихії / Adrift (2018) Remux 1080p Ukr/Eng | Sub Eng staf777  4 / 0   29.24 GB   2018-08-30 20:01 
   У полоні стихії / Adrift (2018) igor911  58 / 1   1.46 GB   2018-08-30 09:05 
   У полоні стихії / Adrift (2018) 720p Ukr/Eng | Sub Eng 11FrYkT  22 / 0   6.28 GB   2018-08-30 06:18 
   У полоні стихії / Adrift (2018) AVC Ukr/Eng | Sub Eng 11FrYkT  35 / 0   2.13 GB   2018-08-30 06:16 
bot 
робот


З нами з: 30.09.07
Востаннє: 26.05.05
Повідомлень: 20324

2018-08-29 08:44  
Тему перенесено з Анонси релізів до форуму Фільми в HD


staf777

гобой 
Частий відвідувач


З нами з: 08.01.12
Востаннє: 01.12.18
Повідомлень: 29

2018-08-29 11:50  
як фільм?
staf777 
Попереджень: 1
Попереджень: 1 


З нами з: 16.11.16
Востаннє: 10.12.18
Повідомлень: 1887

2018-08-30 19:11  
Додав укр. доріжку 5.1
ntrader 
Свій


З нами з: 31.05.16
Востаннє: 04.12.18
Повідомлень: 59

2018-08-31 13:01  
Дивився в кінотеатрі - фільм сподобався. Рекомендую
armogun 
Поважний учасник


З нами з: 04.05.13
Востаннє: 10.12.18
Повідомлень: 215

2018-09-01 19:35  
пародія на Мілину , фільм не сподобався,
waldi-hurtom 
VIP


З нами з: 07.10.12
Востаннє: 10.12.18
Повідомлень: 840

2018-09-02 16:06  
Найкраще у фільмі - крайовиди. Спортсвуменка аж занадто цнотлива (модель з 4-х років!) - ніц не показала, пичка не дуже (моделі стають все страшніше і страшніше), та ще й в страшному гримі майже постійно, то ж немає більше що дивитись. 6 з 10.
Siegfried 
Поважний учасник


З нами з: 01.11.11
Востаннє: 09.12.18
Повідомлень: 202

2018-09-03 08:37  
Мав деякі сподівання на цей фільм, адже задум цікавий + на реальних подіях.

В дійсності я зміг витримати цеї нудоти лише півгодини.

Флешбеки заради флешбеків - це взагалі нащо ?

Душе шкода, такий потенціал просрати.

3/10

Custo 12 
Свій


З нами з: 08.11.16
Востаннє: 05.12.18
Повідомлень: 74

2018-09-05 15:39  
гобой
Таке собі. Я чекав красивезної картинки як в "Пі" (де малий з тигром в човні пливе). А тут дуже все сумно. Так, реалістично, особливо зйомки у воді, але в пам"яті не залишиться.

pvm 
Поважний учасник


З нами з: 05.03.10
Востаннє: 10.12.18
Повідомлень: 213

2018-09-25 01:28  
бойовик ???
трилер ???
Вкажіть на один епізод цього фільму, як бойовика

Ваш часовий пояс: GMT + 2 Години

Нова тема   Відповісти