У полоні стихії / Adrift (2018) Remux 1080p Ukr/Eng | Sub Eng

Нові коментарі

Нова тема   Відповісти
Автор Повідомлення
staf777 
Попереджень: 1
Попереджень: 1 


З нами з: 16.11.16
Востаннє: 21.10.18
Повідомлень: 1648

2018-08-29 00:52  
У полоні стихії / Adrift (2018) Remux 1080p Ukr/Eng | Sub Eng

У полоні стихії / Adrift (2018) Remux 1080p Ukr/Eng | Sub Eng


Жанр: бойовик, драма, мелодрама, пригодницький, трилер
Країна: США



Кінокомпанія: Huayi Brothers, Lakeshore Entertainment, RVK Studios
Режисер: Балтазар Кормакур
Актори: Шейлін Вудлі, Сем Клафлін, Джеффрі Томас, Елізабет Хоторн, Зак Бересфорд, Ґрейс Палмер, Тамі Ешкрафт

Сюжет:
Сем Клафлін та Шейлін Вудлі у захоплюючій історії виживання від режисера Бальтазара Кормакура.

Їх несподівана зустріч на Таїті стала початком великого кохання. Молоді та вільні, вони вирушають у подорож Тихим океаном. Несподівано їх розкішна яхта потрапляє в один з найпотужніших ураганів в історії. Тепер не лише їх майбутнє, але і їх життя знаходиться у полоні стихії…


Тривалість: 01:36:47
Якість: Remux 1080p
Відео:
кодек:
розмір кадру: 1920x1080
бітрейт: 34,3 Мб/с

Аудіо # 1:
мова: українська
переклад: професійний дубльований | студія Postmodern
кодек: HD MA 5.1
бітрейт: 3731 кб/с

Аудіо # 2:
мова: українська
переклад: професійний дубльований | студія Postmodern
кодек: 5.1
бітрейт: 640 кб/с

Аудіо # 3:
мова: англійська
переклад: оригінал
кодек: -HD MA 7.1
бітрейт: 4565 кб/с

Субтитри:
мова: англійська
тип: програмні (м'які)
формат: *.srt
Info
General
Unique ID : 218086614068983981185024309837794658701 (0xA411F43CA81DE9B21BD4EA3197B0498D)
Complete name : D:\Фільми в HD\Бойовик\ Adrift (2018) Remux 1080p[UKR_ENG] [Hurtom].
Format :
Format version : Version 4 / Version 2
File size : 29.2 GiB
Duration : 1 h 36 min
Overall bit rate mode : Variable
Overall bit rate : 43.2 Mb/s
Movie name : Adrift (2018) Remux 1080p[UKR_ENG] [Hurtom]
Encoded date : UTC 2018-08-30 16:28:49
Writing application : v24.0.0 ('Beyond The Pale') 64-bit
Writing library : libebml v1.3.6 + v1.4.9
Cover : Yes
Attachments : cover.jpg

Video
ID : 1
Format : AVC
Format/Info : Advanced Video Codec
Format profile : [email protected]
Format settings : CABAC / 4 Ref Frames
Format settings, CABAC : Yes
Format settings, ReFrames : 4 frames
Format settings, GOP : M=3, N=12
Codec ID : V_MPEG4/ISO/AVC
Duration : 1 h 36 min
Bit rate mode : Variable
Bit rate : 34.3 Mb/s
Maximum bit rate : 38.3 Mb/s
Width : 1 920 pixels
Height : 1 080 pixels
Display aspect ratio : 16:9
Frame rate mode : Constant
Frame rate : 23.976 (24000/1001) FPS
Color space : YUV
Chroma subsampling : 4:2:0
Bit depth : 8 bits
Scan type : Progressive
Bits/(Pixel*Frame) : 0.690
Stream size : 23.2 GiB (79%)
Language : English
Default : Yes
Forced : No

Audio #1
ID : 2
Format :
Format/Info : Digital Theater Systems
Format profile : MA / Core
Codec ID : A_DTS
Duration : 1 h 36 min
Bit rate mode : Variable / Constant
Bit rate : 3 731 kb/s / 1 509 kb/s
Channel(s) : 6 channels
Channel positions : Front: L C R, Side: L R, LFE
Sampling rate : 48.0 kHz
Frame rate : 93.750 FPS (512 SPF)
Bit depth : 24 bits
Compression mode : Lossless / Lossy
Stream size : 2.52 GiB (9%)
Title : [UA-DUB-студія Postmodern] HD MA 5.1
Language : Ukrainian
Default : Yes
Forced : Yes

Audio #2
ID : 3
Format : AC-3
Format/Info : Audio Coding 3
Codec ID : A_AC3
Duration : 1 h 36 min
Bit rate mode : Constant
Bit rate : 640 kb/s
Channel(s) : 6 channels
Channel positions : Front: L C R, Side: L R, LFE
Sampling rate : 48.0 kHz
Frame rate : 31.250 FPS (1536 SPF)
Bit depth : 16 bits
Compression mode : Lossy
Stream size : 443 MiB (1%)
Title : [UA-DUB-студія Postmodern] 5.1
Language : Ukrainian
Service kind : Complete Main
Default : No
Forced : No

Audio #3
ID : 4
Format :
Format/Info : Digital Theater Systems
Format profile : MA / Core
Codec ID : A_DTS
Duration : 1 h 36 min
Bit rate mode : Variable / Constant
Bit rate : 4 565 kb/s / 1 509 kb/s
Channel(s) : 8 channels / 6 channels
Channel positions : Front: L C R, Side: L R, Back: L R, LFE / Front: L C R, Side: L R, LFE
Sampling rate : 48.0 kHz
Frame rate : 93.750 FPS (512 SPF)
Bit depth : 24 bits
Compression mode : Lossless / Lossy
Stream size : 3.09 GiB (11%)
Title : Original
Language : English
Default : No
Forced : No

Text
ID : 5
Format : UTF-8
Codec ID : S_TEXT/UTF8
Codec ID/Info : UTF-8 Plain Text
Duration : 1 h 27 min
Bit rate : 35 b/s
Count of elements : 913
Stream size : 22.6 KiB (0%)
Language : English
Default : No
Forced : No

Menu
00:00:00.000 : en:00:00:00.000
00:05:18.944 : en:00:05:18.944
00:08:04.401 : en:00:08:04.401
00:14:01.257 : en:00:14:01.257
00:19:38.010 : en:00:19:38.010
00:24:46.568 : en:00:24:46.568
00:29:42.572 : en:00:29:42.572
00:34:45.709 : en:00:34:45.709
00:37:20.947 : en:00:37:20.947
00:43:30.024 : en:00:43:30.024
00:49:43.564 : en:00:49:43.564
00:52:40.532 : en:00:52:40.532
00:58:12.447 : en:00:58:12.447
01:06:31.029 : en:01:06:31.029
01:11:19.650 : en:01:11:19.650
01:14:07.151 : en:01:14:07.151
01:18:06.974 : en:01:18:06.974
01:24:15.550 : en:01:24:15.550
01:27:22.446 : en:01:27:22.446
01:31:34.489 : en:01:31:34.489
Скріншоти



Подяка пану AngryBirdsUA за доріжку та пану Hanway за синхронізацію.
Джерело: &
Особиста оцінка: 0 - не дивився


Золотий реліз (завантажене не впливає на рейтинг)
 Трекер:    Зареєстрований   

Завантажити / скачати фільм українською



відео для новачків



 Зареєстрований:   2018-08-30 21:01
 Розмір:   29.24 GB 
 Оцінка фільму:   7.8/10 (Голосів: 13)
   
Інші релізи
   У полоні стихії / Adrift (2018) mini 1080p H.265 Ukr/Eng | Sub Eng -Star-Lord-  10 / 0   4.2 GB   2018-09-02 13:22 
   У полоні стихії / Adrift (2018) 1080p Ukr/Eng | Sub Eng staf777  27 / 0   10.24 GB   2018-08-30 20:08 
   У полоні стихії / Adrift (2018) igor911  49 / 1   1.46 GB   2018-08-30 10:05 
   У полоні стихії / Adrift (2018) 720p Ukr/Eng | Sub Eng 11FrYkT  21 / 0   6.28 GB   2018-08-30 07:18 
   У полоні стихії / Adrift (2018) AVC Ukr/Eng | Sub Eng 11FrYkT  25 / 0   2.13 GB   2018-08-30 07:16 
bot 
робот


З нами з: 30.09.07
Востаннє: 26.05.05
Повідомлень: 19984

2018-08-29 08:50  
Тему перенесено з Анонси релізів до форуму Фільми в HD


staf777

staf777 
Попереджень: 1
Попереджень: 1 


З нами з: 16.11.16
Востаннє: 21.10.18
Повідомлень: 1648

2018-08-30 21:05  
Додав укр. доріжку HD MA 5.1
Ваш часовий пояс: GMT + 2 Години

Нова тема   Відповісти