Драконячий Дантист / Ryuu no Haisha (2017) 720p Jap | Sub Ukr/Eng

Нові коментарі

Нова тема   Відповісти
Автор Повідомлення
Konstantin_Exorcist 
Свій


З нами з: 18.11.14
Востаннє: 21.02.19
Повідомлень: 92

2018-08-28 22:17  
Драконячий Дантист / Ryuu no Haisha (2017) 720p Jap | Sub Ukr/Eng

Драконячий Дантист / Ryuu no Haisha (2017) 720p Jap | Sub Ukr/Eng


Жанр: Фентезі
Країна: Японія



7.36 ((479) голосів)

Кінокомпанія: Khara
Режисер: Тсурумакі Казуя, Майджо Отаро
Ролі озвучують:
Шімізу Фуміка
Окамото Набухіко
Ямадера Койчі
Назука Каорі
Хаяшібара Меґумі

Сюжет:
Історія відбувається в країні Драконів. Ноноко - нещодавно призначений дантист, і її місія полягає в тому, щоб захистити дракона, хранителя країни, від злісних зубних бактерій. Одного разу, на тлі все більш запеклого бою з сусідньою країною, Ноноко знаходить в зубі дракона хлопчину, солдата з ворожої країни. Його звуть Белл, і він воскрес всередині зуба дракона - надприродне явище, легенда говорить, що це відбувається напередодні великої катастрофи.


Тривалість: 1 серія: 46:00 (цілком серій: 2)
Перелік серій
01. Жук-Тенґу
02. Жук-Бійня
Якість:
Відео:
кодек:
розмір кадру: 1280 х 720
бітрейт: 1 876 кб/с

Аудіо:
мова: японська
переклад: оригінал
кодек: 2.0
бітрейт: 128 кб/с

Субтитри:
мова: українська (Повні)
тип: програмні (м'які)
формат: *.

Субтитри:
мова: англійська (Повні)
тип: програмні (м'які)
формат: *.

Субтитри:
мова: англійська (Написи)
тип: програмні (м'які)
формат: *.

Переклад: Alan
Оформлення субтитрів: Sensetivity
Постер: Otaku First
Info
General
Unique ID : 326274617319503964378450002848905288025 (0xF576349F8243FB55B8B4B9092011D959)
Complete name : E:\Драконячий Дантист - Ryuu no Haisha (2017)\1\Драконячий Дантист - Ryuu no Haisha 01 (Alan).
Format :
Format version : Version 4 / Version 2
File size : 674 MiB
Duration : 46 min 0 s
Overall bit rate : 2 048 kb/s
Movie name : EP 01 - Tengumushi
Encoded date : UTC 2018-08-28 19:38:59
Writing application : v25.0.0 ('Prog Noir') 64-bit
Writing library : libebml v1.3.6 + v1.4.9
Attachments : Fontastique_1.ttf / Leap of Faith_1.ttf / MutsukiNmin-L DSP_1.ttf / Mebinac regular_1.otf / stylo_1.otf / ZinHenaBokuryu-CRF.ttf / Mebinac regular.otf / MutsukiNmin-L DSP.ttf / trebucbd.ttf / trebucbi.ttf / Fontastique.ttf / Leap of Faith.ttf

Video
ID : 1
Format : AVC
Format/Info : Advanced Video Codec
Format profile : High [email protected]
Format settings : CABAC / 4 Ref Frames
Format settings, CABAC : Yes
Format settings, ReFrames : 4 frames
Codec ID : V_MPEG4/ISO/AVC
Duration : 46 min 0 s
Bit rate : 1 876 kb/s
Width : 1 280 pixels
Height : 720 pixels
Display aspect ratio : 16:9
Frame rate mode : Constant
Frame rate : 23.976 (24000/1001) FPS
Color space : YUV
Chroma subsampling : 4:2:0
Bit depth : 10 bits
Scan type : Progressive
Bits/(Pixel*Frame) : 0.085
Stream size : 617 MiB (92%)
Title : Encode by Sumire
Writing library : x264_10 - core 148 r2762 90a61ec
Encoding settings : cabac=1 / ref=4 / deblock=1:-3:-3 / analyse=0x3:0x133 / me=umh / subme=10 / psy=1 / psy_rd=1.00:0.00 / mixed_ref=1 / me_range=24 / chroma_me=1 / trellis=2 / 8x8dct=1 / cqm=0 / deadzone=21,11 / fast_pskip=1 / chroma_qp_offset=-2 / threads=5 / lookahead_threads=1 / sliced_threads=0 / nr=0 / decimate=1 / interlaced=0 / bluray_compat=0 / constrained_intra=0 / bframes=6 / b_pyramid=2 / b_adapt=2 / b_bias=0 / direct=3 / weightb=1 / open_gop=0 / weightp=2 / keyint=230 / keyint_min=23 / scenecut=40 / intra_refresh=0 / rc_lookahead=60 / rc=crf / mbtree=1 / crf=18.0 / qcomp=0.60 / qpmin=0 / qpmax=69 / qpstep=4 / ip_ratio=1.40 / aq=1:1.00
Language : Japanese
Default : Yes
Forced : No

Audio
ID : 2
Format :
Format/Info : Advanced Audio Codec
Format profile : LC
Codec ID : A_AAC-2
Duration : 46 min 0 s
Bit rate : 128 kb/s
Channel(s) : 2 channels
Channel positions : Front: L R
Sampling rate : 44.1 kHz
Frame rate : 43.066 FPS (1024 SPF)
Compression mode : Lossy
Stream size : 42.1 MiB (6%)
Title : Японська
Language : Japanese
Default : Yes
Forced : Yes

Text #1
ID : 3
Format :
Codec ID : S_TEXT/
Codec ID/Info : Advanced Sub Station Alpha
Duration : 45 min 58 s
Bit rate : 776 b/s
Count of elements : 2696
Compression mode : Lossless
Stream size : 262 KiB (0%)
Title : Повні (Alan)
Language : Ukrainian
Default : Yes
Forced : Yes

Text #2
ID : 4
Format :
Codec ID : S_TEXT/
Codec ID/Info : Advanced Sub Station Alpha
Duration : 45 min 58 s
Bit rate : 735 b/s
Count of elements : 2696
Compression mode : Lossless
Stream size : 248 KiB (0%)
Title : Full Dialogue [Sumire]
Language : English
Default : No
Forced : No

Text #3
ID : 5
Format :
Codec ID : S_TEXT/
Codec ID/Info : Advanced Sub Station Alpha
Duration : 45 min 31 s
Bit rate : 654 b/s
Count of elements : 2147
Compression mode : Lossless
Stream size : 218 KiB (0%)
Title : Signs + Songs Only [Sumire]
Language : English
Default : No
Forced : No

Menu
00:00:00.000 : en:Prologue
00:05:30.412 : en:Opening: "Bokura ga Tabi ni Deru Riyuu" (Rinku)
00:07:25.069 : en:Part I
00:14:07.971 : en:Part II
00:22:42.944 : en:Part III
00:32:34.076 : en:Part IV
00:39:02.297 : en:Part V
00:45:56.962 : en:Epilogue
Скріншоти



Джерело:
Особиста оцінка: 10 - без зайвих вагань рекомендую всім!


Золотий реліз (завантажене не впливає на рейтинг)
 Трекер:    Зареєстрований   

Завантажити / скачати аніме українською



відео для новачків



 Зареєстрований:   2018-08-28 22:17
 Розмір:   1.3 GB 
 Оцінка аніме:   9.5/10 (Голосів: 4)
   
EvGaS 
Відео Гуртом - субтитрування
Відео Гуртом - субтитрування


З нами з: 27.02.12
Востаннє: 21.02.19
Повідомлень: 5555

2018-08-29 10:58  
Приємна графіка, як на цифрову епоху. Змогли звести її недоліки до мінімуму та поєднати 3Д та 2Д так, щоб поміж ними не було сильно помітно різниці.
Головним недоліком тут мабуть є слабка історія — це казка для дітей від 5-6 років, і десь до 20-ти.
(тим не менш, віковий ценз тут 16+, як не смішно, та повідь значно відстає за віком від кривавості та жорстокості… одним словом, для дорослих, яким схотілося подивитись щось «дитяче» …тож краще його малим дітям не показуйте, жахи опісля можуть наснитися)

Ще в мене вийшов цікавий висновок:
Карієс (Карієсса) — безсмертний, дантисти — ні.
Wide grin

bot 
робот


З нами з: 30.09.07
Востаннє: 26.05.05
Повідомлень: 20701

2018-08-29 11:36  
Тему перенесено з Аніме до форуму Аніме


11FrYkT

EvGaS 
Відео Гуртом - субтитрування
Відео Гуртом - субтитрування


З нами з: 27.02.12
Востаннє: 21.02.19
Повідомлень: 5555

2018-08-29 11:44  
Ваш часовий пояс: GMT + 2 Години

Нова тема   Відповісти