Школа. Недитячі ігри (Сезон 2) (2018) 1080p

Нові коментарі

Нова тема   Відповісти
Останній раз роздавалося drakon87 (2020-12-01)
Автор Повідомлення
sergiyko.5 
Забанено
Забанено


З нами з: 25.02.16
Востаннє: 29.10.20
Повідомлень: 3650

2018-08-28 20:28  
Школа. Недитячі ігри (Сезон 2) (2018) 1080p

Школа. Недитячі ігри (Сезон 2) (2018) 1080p

Жанр: пригоди, мелодрама
Країна: Україна
Кінокомпанія: 1+1
Режисер: Сергій Уманець, Сергій Толкушкін, Ірина Литвиненко
Актори: Микита Вакулюк (Алекс), Ліза Василенко (Лола), Олександр Петренко (Паша), Ірина Кудашова (Вероніка), Богдан Осадчук (Тоха), Олег Виговський (Назар), Анна Тринчер (Ната), Карина Чернявська (Ася), Марія Повх (Христина), Жан, Пилип Козлов та інші.

Сюжет:
Цієї осені герої серіалу повернуться до школи майже дорослими. Лола знайшла собі нового залицяльника, який набагато старший за неї. А минуле Ніки дає про себе знати, вона відчуває себе у небезпеці. Катерина вимушена покинути посаду директора, а стан здоров’я Ігоря Сергійовича дуже незадовільний.


Тривалість: 1 серія: 52:33 (цілком серій: 32 серій)
Якість:

Відео: кодек: розмір кадру: 1920 х 1080 бітрейт: 4800 кб/с
Аудіо: мова: українська переклад: оригінал кодек: 2.0 бітрейт: 128 кб/с
Перелік серій
1 серія - 32 серія
Про файл:
General
Unique ID : 68965332112867073613657992939425711588 (0x33E23D651C5C6054A3E8CEDEAC4345E4)
Complete name : E:\FILMS\Школа 2 2018 S02 1080p\Школа.Недитячі ігри.S02E01.1080p..
Format :
Format version : Version 4 / Version 2
File size : 1.87 GiB
Duration : 52 min 22 s
Overall bit rate : 5 121 kb/s
Encoded date : UTC 2018-08-28 18:42:45
Writing application : v25.0.0 ('Prog Noir') 64-bit
Writing library : libebml v1.3.6 + v1.4.9

Video
ID : 1
Format : AVC
Format/Info : Advanced Video Codec
Format profile : [email protected]
Format settings : CABAC / 6 Ref Frames
Format settings, CABAC : Yes
Format settings, ReFrames : 6 frames
Codec ID : V_MPEG4/ISO/AVC
Duration : 52 min 22 s
Bit rate : 4 863 kb/s
Width : 1 920 pixels
Height : 1 080 pixels
Display aspect ratio : 16:9
Frame rate mode : Constant
Frame rate : 25.000 FPS
Color space : YUV
Chroma subsampling : 4:2:0
Bit depth : 8 bits
Scan type : Progressive
Bits/(Pixel*Frame) : 0.094
Stream size : 1.78 GiB (95%)
Language : Ukrainian
Default : Yes
Forced : No

Audio
ID : 2
Format :
Format/Info : Advanced Audio Codec
Format profile : LC
Codec ID : A_AAC-2
Duration : 52 min 22 s
Bit rate : 256 kb/s
Channel(s) : 2 channels
Channel positions : Front: L R
Sampling rate : 44.1 kHz
Frame rate : 43.066 FPS (1024 SPF)
Compression mode : Lossy
Stream size : 95.9 MiB (5%)
Language : Ukrainian
Default : Yes
Forced : No
Скріншоти:




Золотий реліз (завантажене не впливає на рейтинг)
 Трекер:    Зареєстрований   

Завантажити / скачати український серіал



відео для новачків



 Зареєстрований:   2018-10-15 21:32
 Розмір:   52.71 GB 
 Оцінка серіалу:   5.3/10 (Голосів: 26)
   
alikmotin 
Новенький


З нами з: 02.01.14
Востаннє: 21.11.20
Повідомлень: 1

2018-08-29 15:25  
станьте на роздачу пліз!!!
sergiyko.5 
Забанено
Забанено


З нами з: 25.02.16
Востаннє: 29.10.20
Повідомлень: 3650

2018-10-15 21:35  
Додав 29-32 серії.
Fizia 
Новенький


З нами з: 05.02.11
Востаннє: 30.11.20
Повідомлень: 1

2018-10-19 04:51  
А чому 33-ю серію тримають і не виставляють? На Ютюбі теж немає. Вона ж 15-го жовтня вийшла.
sergiyko.5 
Забанено
Забанено


З нами з: 25.02.16
Востаннє: 29.10.20
Повідомлень: 3650

2018-10-19 08:44  
Fizia написано:
Вона ж 15-го жовтня вийшла.

Де саме її показували, в програмі 1+1 немає?

Додано через 20 хвилин 9 секунд:

Ось є така відповідь:
1+1 video написано:

Привіт! У другому сезоні тільки 32 серії.

Максим Зимовець 
Новенький


З нами з: 29.08.18
Востаннє: 24.11.20
Повідомлень: 12

2019-02-24 18:35  
Серіал відверто треш та садомія.
Таке відчуття , що його писали під кайфом чи після якоїсь пиятики.
Сюжет та сценарії- це копіювання російських серіалів "Школа","Закрита Школа" та "Барвіха"."Актуальні" проблеми -це просто погані перекази сюжетів ТСН.
Героїв-вони просто жалюгідні та нікчемні болванчики. Я навіть в житті не бачив таку сцикливу,тупу та нікчемну мразь.У них немає людяності та душевності.
Актори-вони просто рекламні пустушки. Хай вони не розповідають проте що вони вчилися десь в США чи у відомих українських акторів. Їхня гра та емоції - фальшиві.Видно що деякі переграють.Більшість акторів були взяті не за акторські таланти, а за фізичними даними та модельною зовнішністю.
Зйомка та монтаж- якщо ви дивилися "Сімейні мелодрами", то ви зрозумієте що вся вона перекочувала сюди в той чи іншій мірі.
Знаєте краще б ці помиї завершились ще б на першій серії.Проте завдяки проплаченим статтям,постійній рекламній кампанії,продакт плейсменту (з'явився в другому сезоні) та багатьом іншим факторам це гівно існуватиме ще довго. Коротше кажучи, піпл хаває-профіт іде.
І так,тут є нецензурні слова.Можете мене банити. Мені все одно.Я залишуся при своїй думці.

Ваш часовий пояс: GMT + 2 Години

Нова тема   Відповісти