Наосліп / In Darkness (2018) Remux 1080p Ukr/Eng | sub Eng

Нові коментарі

Нова тема   Відповісти
Автор Повідомлення
staf777 
Попереджень: 1
Попереджень: 1 


З нами з: 16.11.16
Востаннє: 21.10.18
Повідомлень: 1648

2018-08-28 21:13  
Наосліп / In Darkness (2018) Remux 1080p Ukr/Eng | sub Eng



Жанр: трилер
Країна: Велика Британія, США



Кінокомпанія: 42, XYZ Films
Режисер: Ентоні Бірн / Anthony Byrne
Актори: Наталі Дормер / Natalie Dormer, Емілі Ратаковскі / Emily Ratajkowski, Ед Скрейн / Ed Skrein, Джоелі Річардсон / Joely Richardson, Джеймс Космо / James Cosmo, Ніл Мескелл / Neil Maskell, Ян Бейвут / Jan Bijvoet, Бернард Коллако / Bern Collaço, Ембер Андерсон / Amber Anderson та інші

Сюжет:
Піаністка Софія стає мимовільним свідком того, як в квартирі над нею вбивають дівчину. І хоча Софія сліпа і могла тільки чути те, що сталося, її втягують в загадковий та небезпечний світ тіньового Лондона. Але з'ясовується, що в цьому жорстокому і похмурому світі вона здатна вибудувати свій власний, неординарний маршрут помсти.
Офіційний український трейлер:

Вікова категорія: 16+
Тривалість: 01:41:37
Якість: Remux 1080p
Відео:
кодек:
розмір кадру: 1920x1080
бітрейт: 30 Mб/с

Аудіо # 1:
мова: українська
переклад: багатоголосий закадровий | студія Tretyakoff production
кодек: 2.0 (стерео)
бітрейт: 192 кб/с

Аудіо # 2:
мова: англійська
переклад: оригінал
кодек: -HD MA 5.1
бітрейт: 3328 кб/с

Субтитри:(Full, SDH)
мова: англійська
тип: програмні (м'які)
формат: *.srt
Info
Код:

General
Unique ID                   : 164304207943172896445653969847857834404 (0x7B9BD6E35AD1CAB305259B7E4835E9A4)
Complete name               : D:\KINOZAL\In Darkness (2018) Remux 1080p [UKR_ENG] [Hurtom].
Format                      :
Format version              : Version 4 / Version 2
File size                   : 23.8 GiB
Duration                    : 1 h 41 min
Overall bit rate mode       : Variable
Overall bit rate            : 33.5 Mb/s
Movie name                  : In Darkness (2018) Remux 1080p [UKR_ENG] [Hurtom]
Encoded date                : UTC 2018-08-28 18:49:13
Writing application         : v24.0.0 ('Beyond The Pale') 64-bit
Writing library             : libebml v1.3.6 + v1.4.9
Cover                       : Yes
Attachments                 : cover.jpg

Video
ID                          : 1
Format                      : AVC
Format/Info                 : Advanced Video Codec
Format profile              : [email protected]
Format settings             : CABAC / 3 Ref Frames
Format settings, CABAC      : Yes
Format settings, ReFrames   : 3 frames
Format settings, GOP        : M=4, N=24
Codec ID                    : V_MPEG4/ISO/AVC
Duration                    : 1 h 41 min
Bit rate mode               : Variable
Bit rate                    : 30.0 Mb/s
Maximum bit rate            : 32.0 Mb/s
Width                       : 1 920 pixels
Height                      : 1 080 pixels
Display aspect ratio        : 16:9
Frame rate mode             : Constant
Frame rate                  : 23.976 (24000/1001) FPS
Standard                    : NTSC
Color space                 : YUV
Chroma subsampling          : 4:2:0
Bit depth                   : 8 bits
Scan type                   : Progressive
Bits/(Pixel*Frame)          : 0.603
Stream size                 : 21.3 GiB (89%)
Language                    : English
Default                     : Yes
Forced                      : No
Color range                 : Limited
Color primaries             : BT.709
Transfer characteristics    : BT.709
Matrix coefficients         : BT.709

Audio #1
ID                          : 2
Format                      : AC-3
Format/Info                 : Audio Coding 3
Codec ID                    : A_AC3
Duration                    : 1 h 41 min
Bit rate mode               : Constant
Bit rate                    : 192 kb/s
Channel(s)                  : 2 channels
Channel positions           : Front: L R
Sampling rate               : 48.0 kHz
Frame rate                  : 31.250 FPS (1536 SPF)
Bit depth                   : 16 bits
Compression mode            : Lossy
Stream size                 : 140 MiB (1%)
Title                       : [UA-MVO-| студія Tretyakoff production]
Language                    : Ukrainian
Service kind                : Complete Main
Default                     : Yes
Forced                      : Yes

Audio #2
ID                          : 3
Format                      :
Format/Info                 : Digital Theater Systems
Format profile              : MA / Core
Codec ID                    : A_DTS
Duration                    : 1 h 41 min
Bit rate mode               : Variable / Constant
Bit rate                    : 3 328 kb/s / 768 kb/s
Channel(s)                  : 6 channels
Channel positions           : Front: L C R, Side: L R, LFE
Sampling rate               : 48.0 kHz
Frame rate                  : 93.750 FPS (512 SPF)
Bit depth                   : 24 bits
Compression mode            : Lossless / Lossy
Delay relative to video     : 3 ms
Stream size                 : 2.36 GiB (10%)
Language                    : English
Default                     : No
Forced                      : No

Text #1
ID                          : 4
Format                      : UTF-8
Codec ID                    : S_TEXT/UTF8
Codec ID/Info               : UTF-8 Plain Text
Duration                    : 1 h 33 min
Bit rate                    : 38 b/s
Count of elements           : 839
Stream size                 : 26.5 KiB (0%)
Language                    : English
Default                     : No
Forced                      : No

Text #2
ID                          : 5
Format                      : UTF-8
Codec ID                    : S_TEXT/UTF8
Codec ID/Info               : UTF-8 Plain Text
Duration                    : 1 h 34 min
Bit rate                    : 39 b/s
Count of elements           : 912
Stream size                 : 27.6 KiB (0%)
Language                    : English
Default                     : No
Forced                      : No

Menu
00:00:00.000                : en:Chapter 1
00:06:30.139                : en:Chapter 2
00:12:33.461                : en:Chapter 3
00:17:43.562                : en:Chapter 4
00:23:38.250                : en:Chapter 5
00:28:46.641                : en:Chapter 6
00:36:22.722                : en:Chapter 7
00:42:06.357                : en:Chapter 8
00:48:10.012                : en:Chapter 9
00:54:41.861                : en:Chapter 10
00:59:12.298                : en:Chapter 11
01:05:19.707                : en:Chapter 12
01:09:29.665                : en:Chapter 13
01:16:00.764                : en:Chapter 14
01:22:38.370                : en:Chapter 15
01:27:33.456                : en:Chapter 16






Підтримати купівлю інших фільмів можна тут.


Джерело: &
Українська доріжка - AngryBirdsUA, Hanway.
За допомогу в створені реліза дякую пану igor911


Золотий реліз (завантажене не впливає на рейтинг)
 Трекер:    Зареєстрований   

Завантажити / скачати фільм українською



відео для новачків



 Зареєстрований:   2018-08-28 22:37
 Розмір:   23.8 GB 
 Оцінка фільму:   7.4/10 (Голосів: 5)
   
Інші релізи
   Наосліп / In Darkness (2018) AVC Ukr/Eng | Sub Eng 11FrYkT  27 / 0   1.53 GB   2018-08-28 18:37 
   Наосліп / In Darkness (2018) 1080p Ukr/Eng | Sub Eng 11FrYkT  15 / 0   8.49 GB   2018-08-28 18:36 
   Наосліп / In Darkness (2018) igor911  11 / 0   1.28 GB   2018-08-28 15:48 
bot 
робот


З нами з: 30.09.07
Востаннє: 26.05.05
Повідомлень: 19984

2018-08-28 22:37  
Тему перенесено з Анонси релізів до форуму Фільми в HD


staf777

Ваш часовий пояс: GMT + 2 Години

Нова тема   Відповісти