Реальність кусається / Reality Bites (1994) AVC Ukr/Eng | Sub Eng

Нові коментарі

Нова тема   Відповісти
Автор Повідомлення
staf777 
Відео Гуртом - підтримка та поширення
Відео Гуртом - підтримка та поширення


З нами з: 16.11.16
Востаннє: 03.07.20
Повідомлень: 3788

2018-08-28 20:52  
Реальність кусається / Reality Bites (1994) AVC Ukr/Eng | Sub Eng

Реальність кусається / Reality Bites (1994) AVC Ukr/Eng | Sub Eng


Жанр: комедія, драма, романтичний
Країна: США



Кінокомпанія: Jersey Films, Universal Pictures
Режисер: Бен Стіллер / Ben Stiller
Актори: Bайнона Райдер / Winona Ryder, Ітан Гоук / Ethan Hawke, Джанін Ґарофало / Janeane Garofalo, Стів Зан / Steve Zahn, Бен Стіллер / Ben Stiller, Свузі Керц / Swoosie Kurtz, Сьюзен Норфліт / Susan Norfleet, Джо Дон Бейкер / Joe Don Baker, Рене Зелвеґер / Renée Zellweger

Сюжет:
Лілайна працює асистентом нестерпного телеведучого. У вільний від роботи час наша героїня знімає документальний фільм про своїх однолітків, серед яких - її найкращий друг Трей - здібний, але «бунтар», який марнує час. Після появи Майкла - амбітного відео-продюсера, Лілайна несподівано для себе опиняється в епіцентрі пристрасного любовного трикутника. Тепер їй належить обирати між надійним, успішним Майклом і мрійливим, вітряним красенем Треєм.


Тривалість: 01:38:24
Якість: AVC
Відео:
кодек:
розмір кадру: 1024x552
бітрейт: 2333 кб/с

Аудіо # 1:
мова: українська
переклад: багатоголосий закадровий
кодек: 2.0
бітрейт: 192 кб/с

Аудіо # 2:
мова: англійська
переклад: оригінал
кодек: 5.1
бітрейт: 448 кб/с

Джерело озвучення:


Субтитри:
мова: англійська
тип: програмні (м'які)
формат: *.srt
Скріншоти




MI
General
Unique ID : 210772159681036648392537921550401116010 (0x9E913DCAE6E474FE768771F632CF976A)
Complete name : H:\Reality Bites (1994) AVC [UKR_ENG] [Hurtom].
Format :
Format version : Version 4 / Version 2
File size : 2.04 GiB
Duration : 1 h 38 min
Overall bit rate : 2 974 kb/s
Movie name : Reality Bites (1994) AVC [UKR_ENG] [Hurtom]
Encoded date : UTC 2018-08-28 17:30:53
Writing application : v24.0.0 ('Beyond The Pale') 64-bit
Writing library : libebml v1.3.6 + v1.4.9
Cover : Yes
Attachments : cover.jpg

Video
ID : 1
Format : AVC
Format/Info : Advanced Video Codec
Format profile : [email protected]
Format settings : CABAC / 14 Ref Frames
Format settings, CABAC : Yes
Format settings, ReFrames : 14 frames
Codec ID : V_MPEG4/ISO/AVC
Duration : 1 h 38 min
Bit rate : 2 333 kb/s
Width : 1 024 pixels
Height : 552 pixels
Display aspect ratio : 1.85:1
Frame rate mode : Constant
Frame rate : 23.976 (24000/1001) FPS
Color space : YUV
Chroma subsampling : 4:2:0
Bit depth : 8 bits
Scan type : Progressive
Bits/(Pixel*Frame) : 0.172
Stream size : 1.60 GiB (78%)
Title : Reality Bites (1994)
Writing library : core 148 r2744 b97ae06
Encoding settings : cabac=1 / ref=14 / deblock=1:-3:-3 / analyse=0x3:0x133 / me=umh / subme=11 / psy=1 / psy_rd=1.00:0.00 / mixed_ref=1 / me_range=32 / chroma_me=1 / trellis=2 / 8x8dct=1 / cqm=0 / deadzone=21,11 / fast_pskip=1 / chroma_qp_offset=-2 / threads=6 / lookahead_threads=1 / sliced_threads=0 / nr=0 / decimate=1 / interlaced=0 / bluray_compat=0 / constrained_intra=0 / bframes=16 / b_pyramid=2 / b_adapt=2 / b_bias=0 / direct=3 / weightb=1 / open_gop=0 / weightp=2 / keyint=240 / keyint_min=23 / scenecut=40 / intra_refresh=0 / rc_lookahead=60 / rc=2pass / mbtree=1 / bitrate=2333 / ratetol=1.0 / qcomp=0.60 / qpmin=0 / qpmax=69 / qpstep=4 / cplxblur=20.0 / qblur=0.5 / vbv_maxrate=50000 / vbv_bufsize=62500 / nal_hrd=none / filler=0 / ip_ratio=1.40 / aq=1:1.00
Language : English
Default : Yes
Forced : No

Audio #1
ID : 2
Format : AC-3
Format/Info : Audio Coding 3
Codec ID : A_AC3
Duration : 1 h 38 min
Bit rate mode : Constant
Bit rate : 192 kb/s
Channel(s) : 2 channels
Channel positions : Front: L R
Sampling rate : 48.0 kHz
Frame rate : 31.250 FPS (1536 SPF)
Bit depth : 16 bits
Compression mode : Lossy
Stream size : 135 MiB (6%)
Title : [UA-MVO-NLO]
Language : Ukrainian
Service kind : Complete Main
Default : Yes
Forced : Yes

Audio #2
ID : 3
Format : AC-3
Format/Info : Audio Coding 3
Codec ID : A_AC3
Duration : 1 h 38 min
Bit rate mode : Constant
Bit rate : 448 kb/s
Channel(s) : 6 channels
Channel positions : Front: L C R, Side: L R, LFE
Sampling rate : 48.0 kHz
Frame rate : 31.250 FPS (1536 SPF)
Bit depth : 16 bits
Compression mode : Lossy
Stream size : 315 MiB (15%)
Title : , 6 ch, 448 Kbps, Original
Language : English
Service kind : Complete Main
Default : No
Forced : No

Text
ID : 4
Format : UTF-8
Codec ID : S_TEXT/UTF8
Codec ID/Info : UTF-8 Plain Text
Duration : 1 h 37 min
Bit rate : 78 b/s
Count of elements : 1375
Stream size : 56.1 KiB (0%)
Language : English
Default : No
Forced : No

Menu
00:00:00.000 : en:00:00:00.000
00:04:14.546 : en:00:04:14.546
00:09:06.004 : en:00:09:06.004
00:14:57.188 : en:00:14:57.188
00:21:20.613 : en:00:21:20.613
00:22:41.277 : en:00:22:41.277
00:34:07.921 : en:00:34:07.921
00:43:18.012 : en:00:43:18.012
00:47:35.436 : en:00:47:35.436
00:48:47.216 : en:00:48:47.216
00:56:22.087 : en:00:56:22.087
01:03:16.835 : en:01:03:16.835
01:08:21.264 : en:01:08:21.264
01:17:51.000 : en:01:17:51.000
01:28:40.232 : en:01:28:40.232
01:33:05.580 : en:01:33:05.580
Джерело: &
Особиста оцінка: 0 - не дивився


Срібний реліз (на рейтинг впливає 50% завантаженого)
 Трекер:    Зареєстрований   

Завантажити / скачати фільм українською



відео для новачків



 Зареєстрований:   2018-08-28 20:52
 Розмір:   2.04 GB 
 Оцінка фільму:   9.3/10 (Голосів: 8)
   
Ваш часовий пояс: GMT + 2 Години

Нова тема   Відповісти