Чунгкінський експрес / Chungking express / Chung Hing sam lam (1994) 1080p Ukr/Chi | Sub Eng

Нові коментарі

Нова тема   Відповісти
Автор Повідомлення
Anonymous 







2018-08-28 19:32  
Чунгкінський експрес / Chungking express / Chung Hing sam lam (1994) 1080p Ukr/Chi | Sub Eng

Чунгкінський експрес / Chungking express / Chung Hing sam lam (1994) 1080p Ukr/Chi | Sub Eng


Жанр: комедія, драма, романтичний
Країна: Гонконґ



Кінокомпанія: Jet Tone Production
Режисер: Вонґ Кар Вай
Актори: Бріджитт Лін, Тоні Люн Чу Вай, Фей Вонґ, Такеші Канешіро, Валері Чоу

Сюжет:
Події картини розвиваються біля цілодобової закусочної в торговому районі Гонконгу, де абсолютно несподівано перетинаються долі кількох людей: поліцейського, офіціантки, господаря закусочної, стюардеси, одного дивного хлопця та інших. В існуючій реальності паралельно розвиваються дві романтичні історії, в яких фігурують два поліцейських, які не мають навіть імен. Вони не схожі один на одного, але обидва мріють про любов. Для першого вона - консервна банка, вміст якої зіпсується через кілька днів. Для іншого - як політ на літаку, який коли-небудь зійде з призначеного курсу.


Тривалість: 01:42:56
Якість: 1080p
Відео:
кодек:
розмір кадру: 1800х1080
бітрейт: 16.6 Мб/с

Аудіо # 1:
мова: українська
переклад: двоголосий закадровий
кодек: 2.0
бітрейт: 192 кб/с

Аудіо # 2:
мова: кантонська
переклад: оригінал
кодек: 5.1
бітрейт: 1 509 кб/с

Субтитри:
мова: англійська
тип: програмні (м'які)
формат: *.srt
Info
General
Unique ID : 228811514683274091340514343878962975223 (0xAC237EA99190BFBDAB8EF910A3AC11F7)
Format :
Format version : Version 4 / Version 2
File size : 13.2 GiB
Duration : 1 h 42 min
Overall bit rate : 18.3 Mb/s
Encoded date : UTC 2018-08-28 17:22:59
Writing application : v6.1.0 ('Old Devil') built on Mar 4 2013 09:10:42
Writing library : libebml v1.3.0 + v1.4.0

Video
ID : 1
Format : AVC
Format/Info : Advanced Video Codec
Format profile : [email protected]
Format settings : CABAC / 4 Ref Frames
Format settings, CABAC : Yes
Format settings, ReFrames : 4 frames
Codec ID : V_MPEG4/ISO/AVC
Duration : 1 h 42 min
Bit rate : 16.6 Mb/s
Width : 1 800 pixels
Height : 1 080 pixels
Display aspect ratio : 5:3
Frame rate mode : Constant
Frame rate : 23.976 (24000/1001) FPS
Color space : YUV
Chroma subsampling : 4:2:0
Bit depth : 8 bits
Scan type : Progressive
Bits/(Pixel*Frame) : 0.356
Stream size : 11.7 GiB (89%)
Writing library : core 132 r2309 3b1f1f7
Encoding settings : cabac=1 / ref=4 / deblock=1:-3:-2 / analyse=0x3:0x113 / me=umh / subme=11 / psy=1 / psy_rd=1.20:0.20 / mixed_ref=1 / me_range=32 / chroma_me=1 / trellis=2 / 8x8dct=1 / cqm=0 / deadzone=21,11 / fast_pskip=0 / chroma_qp_offset=-3 / threads=12 / lookahead_threads=1 / sliced_threads=0 / nr=0 / decimate=0 / interlaced=0 / bluray_compat=0 / constrained_intra=0 / bframes=6 / b_pyramid=2 / b_adapt=2 / b_bias=0 / direct=3 / weightb=1 / open_gop=0 / weightp=2 / keyint=240 / keyint_min=23 / scenecut=40 / intra_refresh=0 / rc_lookahead=120 / rc=2pass / mbtree=0 / bitrate=16615 / ratetol=1.0 / qcomp=0.70 / qpmin=0 / qpmax=69 / qpstep=4 / cplxblur=20.0 / qblur=0.5 / vbv_maxrate=50000 / vbv_bufsize=62500 / nal_hrd=none / ip_ratio=1.40 / pb_ratio=1.30 / aq=2:0.80
Language : Chinese
Default : Yes
Forced : No
Color range : Limited
Color primaries : BT.709
Transfer characteristics : BT.709
Matrix coefficients : BT.709

Audio #1
ID : 2
Format : AC-3
Format/Info : Audio Coding 3
Codec ID : A_AC3
Duration : 1 h 42 min
Bit rate mode : Constant
Bit rate : 192 kb/s
Channel(s) : 2 channels
Channel positions : Front: L R
Sampling rate : 48.0 kHz
Frame rate : 31.250 FPS (1536 SPF)
Bit depth : 16 bits
Compression mode : Lossy
Stream size : 141 MiB (1%)
Title : UKR (СТБ)
Language : Ukrainian
Service kind : Complete Main
Default : Yes
Forced : Yes

Audio #2
ID : 3
Format :
Format/Info : Digital Theater Systems
Codec ID : A_DTS
Duration : 1 h 42 min
Bit rate mode : Constant
Bit rate : 1 509 kb/s
Channel(s) : 6 channels
Channel positions : Front: L C R, Side: L R, LFE
Sampling rate : 48.0 kHz
Frame rate : 93.750 FPS (512 SPF)
Bit depth : 24 bits
Compression mode : Lossy
Stream size : 1.08 GiB (8%)
Language : Chinese
Default : No
Forced : No

Text
ID : 4
Format : UTF-8
Codec ID : S_TEXT/UTF8
Codec ID/Info : UTF-8 Plain Text
Language : English
Default : No
Forced : No

Menu
00:00:00.000 : zh:Chapter 01
00:02:49.502 : zh:Chapter 02
00:06:02.070 : zh:Chapter 03
00:12:29.498 : zh:Chapter 04
00:17:18.704 : zh:Chapter 05
00:19:53.567 : zh:Chapter 06
00:22:15.000 : zh:Chapter 07
00:26:19.077 : zh:Chapter 08
00:32:54.722 : zh:Chapter 09
00:36:38.487 : zh:Chapter 10
00:39:01.130 : zh:Chapter 11
00:41:01.375 : zh:Chapter 12
00:46:20.777 : zh:Chapter 13
00:50:42.289 : zh:Chapter 14
00:53:50.393 : zh:Chapter 15
00:58:54.197 : zh:Chapter 16
01:02:54.103 : zh:Chapter 17
01:06:01.791 : zh:Chapter 18
01:10:32.186 : zh:Chapter 19
01:15:42.829 : zh:Chapter 20
01:20:30.826 : zh:Chapter 21
01:24:50.585 : zh:Chapter 22
01:28:13.329 : zh:Chapter 23
01:31:40.411 : zh:Chapter 24
01:35:22.967 : zh:Chapter 25
01:36:31.702 : zh:Chapter 26
Скріншоти





За українську доріжку подяка п.: Tanat13, ninenine
Особиста подяка пану denixx за надану матеріальну допомогу на підтримку цього і майбутніх релізів.
Джерело:


Срібний реліз (на рейтинг впливає 50% завантаженого)
 Трекер:    Зареєстрований   

Завантажити / скачати фільм українською



відео для новачків



 Зареєстрований:   2018-08-28 19:32
 Розмір:   13.17 GB 
 Оцінка фільму:   10/10 (Голосів: 3)
   
Інші релізи
Kurya 
Частий відвідувач


З нами з: 08.05.08
Востаннє: 12.12.18
Повідомлень: 48

2018-09-01 09:17  
Дуже дякую. Чудове кіно у гарній якості з душевним перекладом.
Ваш часовий пояс: GMT + 2 Години

Нова тема   Відповісти