Чорна Пантера / Black Panther (2018)

Нові коментарі

Нова тема   Відповісти
Автор Повідомлення
Anonymous 







2018-08-28 13:37  
Чорна Пантера / Black Panther (2018)

Чорна Пантера / Black Panther (2018)
Альтернативні українські постери







Жанр: бойовик, пригодницький, фантастика
Країна: США



Кінокомпанія: Marvel Studios, Walt Disney Pictures
Режисер: Раян Куглер
Актори: Чедвік Боузман, Майкл Б. Джордан, Люпіта Ніонго, Данай Джекесай Гуріра, Мартін Фріман, Деніел Калуя, Летішіа Райт, Вінстон Д'юк, Стерлінг К. Браун, Анджела Бассетт

Сюжет:
З першого погляду можна вирішити, що Ваканда - звичайна територія дикої Африки, але це не так. Тут, в надрах пустельних земель, ховаються поклади унікального металу, здатного поглинати вібрацію. Багато хто намагався дістатися до нього, плюндруючи все на своєму шляху і приносячи смерть аборигенам, але кожен раз таємничий дух савани - Чорна Пантера - вставав на захист пригноблених. Багато років потому біда знову приходить в Ваканду, і цього разу ворог заручився підтримкою сучасних технологій. Коли шансів майже не залишається, Т`Чалла, молодий принц Ваканди, дізнається, що саме йому належить відродити легенду і продовжити вічну боротьбу, надівши маску Чорної Пантери.


Тривалість: 02:14:33
Відео:
кодек:
розмір кадру: 720 х 304
бітрейт: 1861 кб/с

Аудіо # 1:
мова: українська
переклад: професійний дубльований | студія LeDoyen
кодек: 5.1
бітрейт: 448 кб/с
Інформація про дубляж
Субтитри:
мова: українська (форсовані)
тип: програмні (м'які)
формат: *.srt
Info
Код:
General
Complete name               : Black Panther (2018) [Ukr] [Hurtom].avi
Format                      : AVI
Format/Info                 : Audio Video Interleave
Format profile              : OpenDML
File size                   : 2.18 GiB
Duration                    : 2 h 14 min
Overall bit rate            : 2 321 kb/s
Movie name                  : Чорна Пантера / Black Panther (2018) [Ukr] [HURTOM & HQ-ViDEO]
Genre                       : бойовик, пригодницький, фантастика
Recorded date               : 28.08.2018
Writing application         : VirtualDubModUkr 1.5.10.2 (build 2542/release)
Writing library             : VirtualDubMod build 2542/release
Comment                     : https://toloka.to/t94676

Video
ID                          : 0
Format                      : MPEG-4 Visual
Format profile              : Advanced [email protected]
Format settings             : BVOP1 / Custom Matrix
Format settings, BVOP       : 1
Format settings, QPel       : No
Format settings, GMC        : No warppoints
Format settings, Matrix     : Custom
Codec ID                    :
Codec ID/Hint               :
Duration                    : 2 h 14 min
Bit rate                    : 1 861 kb/s
Width                       : 720 pixels
Height                      : 304 pixels
Display aspect ratio        : 2.35:1
Frame rate                  : 23.976 (24000/1001) FPS
Color space                 : YUV
Chroma subsampling          : 4:2:0
Bit depth                   : 8 bits
Scan type                   : Progressive
Compression mode            : Lossy
Bits/(Pixel*Frame)          : 0.355
Stream size                 : 1.75 GiB (80%)
Writing library             : 67

Audio
ID                          : 1
Format                      : AC-3
Format/Info                 : Audio Coding 3
Codec ID                    : 2000
Duration                    : 2 h 14 min
Bit rate mode               : Constant
Bit rate                    : 448 kb/s
Channel(s)                  : 6 channels
Channel positions           : Front: L C R, Side: L R, LFE
Sampling rate               : 48.0 kHz
Frame rate                  : 31.250 FPS (1536 SPF)
Bit depth                   : 16 bits
Compression mode            : Lossy
Stream size                 : 431 MiB (19%)
Alignment                   : Split accross interleaves
Interleave, duration        : 42  ms (1.00 video frame)
Interleave, preload duratio : 500  ms
Title                       : UKR DUB [LeDoyen, HURTOM]
Service kind                : Complete Main


Джерело: &
Подяка Hanway'ю за якісну українську доріжку.


 Трекер:    Зареєстрований   

Завантажити / скачати фільм українською



відео для новачків



 Зареєстрований:   2018-08-28 14:08
 Розмір:   2.18 GB 
 Оцінка фільму:   8.9/10 (Голосів: 8)
   
Інші релізи
   Чорна Пантера / Black Panther (2018) 1080p Ukr/Eng | Sub Eng staf777  10 / 0   15.87 GB   2018-08-28 16:57 
   Чорна Пантера / Black Panther (2018) mini 720p (60 fps) Drool  4 / 1   5.88 GB   2018-08-28 15:55 
   Чорна Пантера / Black Panther (2018) Ukr/Eng | Sub Eng igor911  6 / 0   2.91 GB   2018-08-28 12:06 
   Чорна Пантера / Black Panther (2018) Remux 1080p Ukr/Eng | Sub Eng 11FrYkT  6 / 0   32.54 GB   2018-08-28 07:13 
   Чорна Пантера / Black Panther (2018) AVC 11FrYkT  10 / 1   1.69 GB   2018-08-28 07:11 
   Чорна Пантера / Black Panther (2018) 720p Ukr/Eng | Sub Eng 11FrYkT  8 / 0   7.14 GB   2018-08-28 07:11 
   Чорна Пантера / Black Panther (2018) AVC Ukr/Eng | Sub Eng uafilm.tv  26 / 0   2.42 GB   2018-06-19 20:05 
Ваш часовий пояс: GMT + 2 Години

Нова тема   Відповісти