Чорна Пантера / Black Panther (2018)

Нові коментарі

Нова тема   Відповісти
Автор Повідомлення
Anonymous 







2018-08-28 12:37  
Чорна Пантера / Black Panther (2018)

Чорна Пантера / Black Panther (2018)
Альтернативні українські постери







Жанр: бойовик, пригодницький, фантастика
Країна: США



Кінокомпанія: Marvel Studios, Walt Disney Pictures
Режисер: Раян Куглер
Актори: Чедвік Боузман, Майкл Б. Джордан, Люпіта Ніонго, Данай Джекесай Гуріра, Мартін Фріман, Деніел Калуя, Летішіа Райт, Вінстон Д'юк, Стерлінг К. Браун, Анджела Бассетт

Сюжет:
З першого погляду можна вирішити, що Ваканда - звичайна територія дикої Африки, але це не так. Тут, в надрах пустельних земель, ховаються поклади унікального металу, здатного поглинати вібрацію. Багато хто намагався дістатися до нього, плюндруючи все на своєму шляху і приносячи смерть аборигенам, але кожен раз таємничий дух савани - Чорна Пантера - вставав на захист пригноблених. Багато років потому біда знову приходить в Ваканду, і цього разу ворог заручився підтримкою сучасних технологій. Коли шансів майже не залишається, Т`Чалла, молодий принц Ваканди, дізнається, що саме йому належить відродити легенду і продовжити вічну боротьбу, надівши маску Чорної Пантери.


Тривалість: 02:14:33
Відео:
кодек:
розмір кадру: 720 х 304
бітрейт: 1861 кб/с

Аудіо # 1:
мова: українська
переклад: професійний дубльований | студія LeDoyen
кодек: 5.1
бітрейт: 448 кб/с
Інформація про дубляж
Субтитри:
мова: українська (форсовані)
тип: програмні (м'які)
формат: *.srt
Info
Код:
General
Complete name               : Black Panther (2018) [Ukr] [Hurtom].avi
Format                      : AVI
Format/Info                 : Audio Video Interleave
Format profile              : OpenDML
File size                   : 2.18 GiB
Duration                    : 2 h 14 min
Overall bit rate            : 2 321 kb/s
Movie name                  : Чорна Пантера / Black Panther (2018) [Ukr] [HURTOM & HQ-ViDEO]
Genre                       : бойовик, пригодницький, фантастика
Recorded date               : 28.08.2018
Writing application         : VirtualDubModUkr 1.5.10.2 (build 2542/release)
Writing library             : VirtualDubMod build 2542/release
Comment                     : https://toloka.to/t94676

Video
ID                          : 0
Format                      : MPEG-4 Visual
Format profile              : Advanced [email protected]
Format settings             : BVOP1 / Custom Matrix
Format settings, BVOP       : 1
Format settings, QPel       : No
Format settings, GMC        : No warppoints
Format settings, Matrix     : Custom
Codec ID                    :
Codec ID/Hint               :
Duration                    : 2 h 14 min
Bit rate                    : 1 861 kb/s
Width                       : 720 pixels
Height                      : 304 pixels
Display aspect ratio        : 2.35:1
Frame rate                  : 23.976 (24000/1001) FPS
Color space                 : YUV
Chroma subsampling          : 4:2:0
Bit depth                   : 8 bits
Scan type                   : Progressive
Compression mode            : Lossy
Bits/(Pixel*Frame)          : 0.355
Stream size                 : 1.75 GiB (80%)
Writing library             : 67

Audio
ID                          : 1
Format                      : AC-3
Format/Info                 : Audio Coding 3
Codec ID                    : 2000
Duration                    : 2 h 14 min
Bit rate mode               : Constant
Bit rate                    : 448 kb/s
Channel(s)                  : 6 channels
Channel positions           : Front: L C R, Side: L R, LFE
Sampling rate               : 48.0 kHz
Frame rate                  : 31.250 FPS (1536 SPF)
Bit depth                   : 16 bits
Compression mode            : Lossy
Stream size                 : 431 MiB (19%)
Alignment                   : Split accross interleaves
Interleave, duration        : 42  ms (1.00 video frame)
Interleave, preload duratio : 500  ms
Title                       : UKR DUB [LeDoyen, HURTOM]
Service kind                : Complete Main


Джерело: &
Подяка Hanway'ю за якісну українську доріжку.


 Трекер:    Зареєстрований   

Завантажити / скачати фільм українською



відео для новачків



 Зареєстрований:   2018-08-28 13:08
 Розмір:   2.18 GB 
 Оцінка фільму:   8.4/10 (Голосів: 50)
   
Інші релізи
   Чорна Пантера / Black Panther (2018) 1080p Ukr/Eng | Sub Eng staf777  13 / 0   15.87 GB   2018-08-28 15:57 
   Чорна Пантера / Black Panther (2018) mini 720p (60 fps) Drool  7 / 0   5.88 GB   2018-08-28 14:55 
   Чорна Пантера / Black Panther (2018) Ukr/Eng | Sub Eng igor911  5 / 0   2.91 GB   2018-08-28 11:06 
   Чорна Пантера / Black Panther (2018) Remux 1080p Ukr/Eng | Sub Eng 11FrYkT  4 / 0   32.54 GB   2018-08-28 06:13 
   Чорна Пантера / Black Panther (2018) AVC 11FrYkT  7 / 0   1.69 GB   2018-08-28 06:11 
   Чорна Пантера / Black Panther (2018) 720p Ukr/Eng | Sub Eng 11FrYkT  10 / 0   7.14 GB   2018-08-28 06:11 
   Чорна Пантера / Black Panther (2018) AVC Ukr/Eng | Sub Eng uafilm.tv  8 / 0   2.42 GB   2018-06-19 19:05 
21jumpstreet 
VIP


З нами з: 03.07.12
Востаннє: 15.11.19
Повідомлень: 720

2019-01-22 15:50  
Номінація на оскар 2019 за НАЙКРАЩИЙ ФІЛЬМ. ТОЛЕРАНТНІСТЬ БЕРЕ СВОЄ.
yasav 
Поважний учасник


З нами з: 05.12.17
Востаннє: 15.11.19
Повідомлень: 206

2019-01-23 09:53  
21jumpstreet
Так один з найгірших фільмів року номінований на Оскар. Це піпец повний.

Ledil 
Частий відвідувач


З нами з: 19.05.15
Востаннє: 06.11.19
Повідомлень: 47

2019-02-12 22:01  
Не сподобався взагалі, занадто вже ряжені, крашені
oleksandrom 
Новенький


З нами з: 10.12.09
Востаннє: 07.11.19
Повідомлень: 1

2019-03-09 22:32  
Незгодний. В 3D останім часом нічого кращого не бачив. Аж дух захоплює)))
marovo 
Свій


З нами з: 16.08.11
Востаннє: 10.11.19
Повідомлень: 70

2019-03-23 23:32  
для мене цей фільм;
- розчарування року
- найстрьомніший фільм марвел

klepanaz 
Новенький


З нами з: 01.08.16
Востаннє: 13.11.19
Повідомлень: 3

2019-03-31 22:31  
Однозначно кращий фільм року
BatenkoBMW 
Частий відвідувач


З нами з: 23.12.12
Востаннє: 29.10.19
Повідомлень: 43

2019-08-27 14:02  
Теж не сподобався. Навіть не змогла додивитися до кінця. Найдудніший фільм, що я бачила від Marvel.
merlinker 
Свій


З нами з: 03.04.11
Востаннє: 12.11.19
Повідомлень: 73

2019-10-04 21:13  
Найгірший з усього КВМ
SoulBurn 
Новенький


З нами з: 08.06.10
Востаннє: 15.11.19
Повідомлень: 17

2019-10-05 09:40  
А як на мене - чудова негритянська сатира про боротьбу негрів з не неграми. Про відстоювання негритянських прав негрів, у якій не негри стоять осторонь, а відстоювання негритянських прав негрів полягає у війні безправних негрів з іншими безправними неграми. Браво, негри.

P.S. А можна було просто кинути їм баскетбольний м'яч...

Ваш часовий пояс: GMT + 2 Години

Нова тема   Відповісти