Завзяті шахраї / The Con Is On (2018) Remux 1080p Ukr/Eng | Sub Eng

Нові коментарі

Нова тема   Відповісти
Автор Повідомлення
staf777 
Попереджень: 1
Попереджень: 1 


З нами з: 16.11.16
Востаннє: 16.10.18
Повідомлень: 1632

2018-08-27 22:50  
Завзяті шахраї / The Con Is On (2018) Remux 1080p Ukr/Eng | Sub Eng

[imgalt]


Жанр: комедія
Країна: США, Велика Британія



Кінокомпанія: Autumn Productions, BondIt, Buffalo 8 Productions
Режисер: Джеймс Оклі
Актори: Паркер Поузі, Еліс Ів, Ума Турман, Тім Рот, Меггі К'ю, Софія Вергара, Ешлі Уільямс, Кріспін Гловер, Стівен Фрай

Сюжет:
Британська подружня пара Гарріет і Пітер Фокси, рятуючись від переслідування гангстера, якому вони програли в карти велику суму, відправляється до Лос-Анджелесу. Розуміючи, що гангстер, якому вони заборгували, не залишить їх у спокої, подружжя розробляє план викрадення коштовностей, в якому повинні взяти участь колишня дружина Пітера і її новий чоловік.


Тривалість: 01:35:22
Якість: Remux 1080p
Відео:
кодек:
розмір кадру: 1920x1080
бітрейт: 24,4 Mб/с

Аудіо # 1:
мова: українська
переклад: професійний дубльований
кодек: 2.0
бітрейт: 192 кб/с

Аудіо # 2:
мова: англійська
переклад: оригінал
кодек: -HD MA 5.1
бітрейт: 3357 кб/с

Субтитри:
мова: англійська
тип: програмні (м'які)
формат: *.srt
Info
General
Unique ID : 193617306829889787225730956852402412673 (0x91A9563EEA9FBE3BDCC74F2DD3595C81)
Complete name : D:\The Con Is On (2018) Remux 1080p [UKR_ENG] [Hurtom].
Format :
Format version : Version 4 / Version 2
File size : 18.6 GiB
Duration : 1 h 35 min
Overall bit rate mode : Variable
Overall bit rate : 27.9 Mb/s
Movie name : The Con Is On (2018) Remux 1080p [UKR_ENG] [Hurtom]
Encoded date : UTC 2018-08-28 19:54:15
Writing application : v24.0.0 ('Beyond The Pale') 64-bit
Writing library : libebml v1.3.6 + v1.4.9
Cover : Yes
Attachments : cover.jpg

Video
ID : 1
Format : AVC
Format/Info : Advanced Video Codec
Format profile : [email protected]
Format settings : CABAC / 4 Ref Frames
Format settings, CABAC : Yes
Format settings, ReFrames : 4 frames
Codec ID : V_MPEG4/ISO/AVC
Duration : 1 h 35 min
Bit rate mode : Variable
Bit rate : 24.4 Mb/s
Maximum bit rate : 37.0 Mb/s
Width : 1 920 pixels
Height : 1 080 pixels
Display aspect ratio : 16:9
Frame rate mode : Constant
Frame rate : 23.976 (24000/1001) FPS
Color space : YUV
Chroma subsampling : 4:2:0
Bit depth : 8 bits
Scan type : Progressive
Bits/(Pixel*Frame) : 0.491
Stream size : 16.2 GiB (87%)
Language : English
Default : Yes
Forced : No

Audio #1
ID : 2
Format : AC-3
Format/Info : Audio Coding 3
Codec ID : A_AC3
Duration : 1 h 35 min
Bit rate mode : Constant
Bit rate : 192 kb/s
Channel(s) : 2 channels
Channel positions : Front: L R
Sampling rate : 48.0 kHz
Frame rate : 31.250 FPS (1536 SPF)
Bit depth : 16 bits
Compression mode : Lossy
Stream size : 131 MiB (1%)
Language : Ukrainian
Service kind : Complete Main
Default : Yes
Forced : Yes

Audio #2
ID : 3
Format :
Format/Info : Digital Theater Systems
Format profile : MA / Core
Codec ID : A_DTS
Duration : 1 h 35 min
Bit rate mode : Variable / Constant
Bit rate : 3 357 kb/s / 1 509 kb/s
Channel(s) : 6 channels
Channel positions : Front: L C R, Side: L R, LFE
Sampling rate : 48.0 kHz
Frame rate : 93.750 FPS (512 SPF)
Bit depth : 24 bits
Compression mode : Lossless / Lossy
Stream size : 2.24 GiB (12%)
Title : Original
Language : English
Default : No
Forced : No

Text
ID : 4
Format : UTF-8
Codec ID : S_TEXT/UTF8
Codec ID/Info : UTF-8 Plain Text
Duration : 1 h 34 min
Bit rate : 57 b/s
Count of elements : 1300
Stream size : 39.5 KiB (0%)
Title : Full
Language : English
Default : No
Forced : No

Menu
00:00:00.000 : en:Chapter 1
00:06:30.139 : en:Chapter 2
00:12:33.461 : en:Chapter 3
00:17:43.562 : en:Chapter 4
00:23:38.250 : en:Chapter 5
00:28:46.641 : en:Chapter 6
00:36:22.722 : en:Chapter 7
00:42:06.357 : en:Chapter 8
00:48:10.012 : en:Chapter 9
00:54:41.861 : en:Chapter 10
00:59:12.298 : en:Chapter 11
01:05:19.707 : en:Chapter 12
01:09:29.665 : en:Chapter 13
01:16:00.764 : en:Chapter 14
01:22:38.370 : en:Chapter 15
01:27:33.456 : en:Chapter 16
Скріншоти



Підтримати купівлю інших фільмів можна тут.

Подяка пану AngryBirdsUA за доріжку та пану Arsenfpu за синхронізацію.
За допомогу в створені реліза дякую пану 11FrYkT
Джерело: &
Особиста оцінка: 0 - не дивився


Золотий реліз (завантажене не впливає на рейтинг)
 Трекер:    Зареєстрований   

Завантажити / скачати фільм українською



відео для новачків



 Зареєстрований:   2018-08-28 23:28
 Розмір:   18.62 GB 
 Оцінка фільму:   6.1/10 (Голосів: 7)
   
Інші релізи
bot 
робот


З нами з: 30.09.07
Востаннє: 26.05.05
Повідомлень: 19956

2018-08-28 23:28  
Тему перенесено з Анонси релізів до форуму Фільми в HD


staf777

Oleksa9 
VIP


З нами з: 17.05.12
Востаннє: 16.10.18
Повідомлень: 309

2018-08-31 21:15  
Еге, IMDb3,7 це мабуть навіть забагато...
Ваш часовий пояс: GMT + 2 Години

Нова тема   Відповісти