Зачарований принц / Charming (2018) 1080p Ukr/Eng

Нові коментарі

Нова тема   Відповісти
Автор Повідомлення
Anonymous 







2018-08-27 13:18  
Зачарований принц / Charming (2018) 1080p Ukr/Eng

Зачарований принц / Charming (2018) 1080p Ukr/Eng
Альтернативний постер:


Жанр: анімаційний, комедія, мюзикл, сімейний, фентезі
Країна: США, Канада



Кінокомпанія: 3QU Media, Cinesite, Storyoscopic Films, Vanguard Animation, WV Enterprises
Режисер: Росс Венокур / Ross Venokur
Актори: Демі Ловато / Demi Lovato, Вілмер Вальдеррама / Wilmer Valderrama, Сія Ферлер / Sia Furler, Ніа Вардалос / Nia Vardalos, Ешлі Тісдейл / Ashley Tisdale, Авріл Лавін / Avril Lavigne, Джон Кліз / John Cleese, Ді Бредлі Бейкер / Dee Bradley Baker, Карлос Алазракі / Carlos Alazraqui та інші

Сюжет:
Про прекрасного принца мріє кожна, що вже говорити про прегарних. Незвичайний дар юнак отримав ще при народженні: дівчата готові на все заради його посмішки, але плата за це - праведний гнів чоловіків. Такий стан справ не може тривати вічно, а дар от-от обернеться прокляттям. І тепер у зачарованого принца всього три дні, щоб врятувати Королівство від самого себе ...
Офіційні українські трейлер та відео:



Тривалість: 01:25:22
Якість: 1080p [джерело: GER Blu-ray]

Відео:
кодек:
розмір кадру: 1920 х 1036
бітрейт: 10,8 Мб/с

Аудіо # 1:
мова: українська
переклад: професійний дубльований | студія Postmodern
кодек: 5.1
бітрейт: 384 кб/с
примітка: пісні в оригіналі (не дублювались)
Інформація про дубляж
Переклад: Олексій Зражевський
Режисер дубляжу: Ольга Фокіна
Звукорежисер: Денис Подлясський
Звукорежисер перезапису: Юрій Антонов
Ролі дублювали: Олег Винник, Антоніна Якушева, Катерина Брайковська, Юлія Перенчук, Марина Локтіонова, Лариса Руснак, Сергій Кияшко, Максим Кондратюк та інші.

Дубльовано студією Postmodern на замовлення "Вольга Україна".
Аудіо # 2:
мова: англійська
переклад: оригінал
кодек: 5.1
бітрейт: 1509 кб/с

Збережено оригінальні розділи, як на Blu-ray
Info
Код:
Complete name               : Charming (2018) [Ukr,Eng] 1080p [Hurtom].
Format                      :
Format version              : Version 4
File size                   : 7.56 GiB
Duration                    : 1 h 25 min
Overall bit rate            : 12.7 Mb/s
Movie name                  : Зачарований принц / Charming (2018) [Ukr,Eng] 1080p [Hurtom]
Released date               : 2018
Encoded date                : UTC 2018-10-31 16:43:09
Writing application         : v28.2.0 ('The Awakening') 64-bit
Writing library             : libebml v1.3.6 + v1.4.9
Cover                       : Yes
Comment                     : https://www.imdb.com/title/tt4086018/
Attachments                 : cover.jpg
DIRECTOR                    : Росс Венокур / Ross Venokur
GENRE                       : анімаційний, комедія, мюзикл, сімейний, фентезі
SYNOPSIS                    : Про прекрасного принца мріє кожна, що вже говорити про прегарних. Незвичайний дар юнак отримав ще при народженні: дівчата готові на все заради його посмішки, але плата за це - праведний гнів чоловіків. Такий стан справ не може тривати вічно, а дар от-от обернеться прокляттям. І тепер у зачарованого принца всього три дні, щоб врятувати Королівство від самого себе...
Url                         : https://toloka.to/t94652

Video
ID                          : 1
Format                      : AVC
Format/Info                 : Advanced Video Codec
Format profile              : [email protected]
Format settings             : CABAC / 4 Ref Frames
Format settings, CABAC      : Yes
Format settings, ReFrames   : 4 frames
Codec ID                    : V_MPEG4/ISO/AVC
Duration                    : 1 h 25 min
Bit rate                    : 10.8 Mb/s
Width                       : 1 920 pixels
Height                      : 1 036 pixels
Display aspect ratio        : 1.85:1
Frame rate mode             : Constant
Frame rate                  : 23.976 (24000/1001) FPS
Color space                 : YUV
Chroma subsampling          : 4:2:0
Bit depth                   : 8 bits
Scan type                   : Progressive
Bits/(Pixel*Frame)          : 0.226
Stream size                 : 6.43 GiB (85%)
Title                       : Зачарований принц / Charming (2018) 1080p [TeamHD-potroks]
Writing library             : core 157 r2901M 7d0ff22
Encoding settings           : cabac=1 / ref=4 / deblock=1:-1:-1 / analyse=0x3:0x113 / me=umh / subme=11 / psy=1 / psy_rd=0.98:0.03 / mixed_ref=1 / me_range=48 / chroma_me=1 / trellis=2 / 8x8dct=1 / cqm=0 / deadzone=21,11 / fast_pskip=0 / chroma_qp_offset=-3 / threads=9 / lookahead_threads=2 / sliced_threads=0 / nr=0 / decimate=0 / interlaced=0 / bluray_compat=0 / constrained_intra=0 / bframes=12 / b_pyramid=2 / b_adapt=2 / b_bias=0 / direct=3 / weightb=1 / open_gop=0 / weightp=2 / keyint=240 / keyint_min=23 / scenecut=40 / intra_refresh=0 / rc_lookahead=100 / rc=2pass / mbtree=0 / bitrate=10778 / ratetol=1.0 / qcomp=0.70 / qpmin=0 / qpmax=69 / qpstep=4 / cplxblur=20.0 / qblur=0.5 / vbv_maxrate=50000 / vbv_bufsize=50000 / nal_hrd=none / filler=0 / ip_ratio=1.40 / pb_ratio=1.30 / aq=1:0.70
Language                    : English
Default                     : Yes
Forced                      : No

Audio #1
ID                          : 2
Format                      : AC-3
Format/Info                 : Audio Coding 3
Commercial name             : Dolby Digital
Codec ID                    : A_AC3
Duration                    : 1 h 25 min
Bit rate mode               : Constant
Bit rate                    : 384 kb/s
Channel(s)                  : 6 channels
Channel layout              : L R C LFE Ls Rs
Sampling rate               : 48.0 kHz
Frame rate                  : 31.250 FPS (1536 SPF)
Bit depth                   : 16 bits
Compression mode            : Lossy
Stream size                 : 234 MiB (3%)
Title                       : DUB [Postmodern, іТunes] 5.1 384 Kbps
Language                    : Ukrainian
Service kind                : Complete Main
Default                     : Yes
Forced                      : Yes

Audio #2
ID                          : 3
Format                      :
Format/Info                 : Digital Theater Systems
Codec ID                    : A_DTS
Duration                    : 1 h 25 min
Bit rate mode               : Constant
Bit rate                    : 1 509 kb/s
Channel(s)                  : 6 channels
Channel layout              : C L R Ls Rs LFE
Sampling rate               : 48.0 kHz
Frame rate                  : 93.750 FPS (512 SPF)
Bit depth                   : 16 bits
Compression mode            : Lossy
Stream size                 : 921 MiB (12%)
Title                       : Original, 5.1 1509 kbps
Language                    : English
Default                     : No
Forced                      : No

Menu
00:00:00.000                : en:Chapter 01
00:05:54.270                : en:Chapter 02
00:11:26.310                : en:Chapter 03
00:19:50.689                : en:Chapter 04
00:24:36.808                : en:Chapter 05
00:33:56.409                : en:Chapter 06
00:39:40.086                : en:Chapter 07
00:47:15.541                : en:Chapter 08
00:53:27.787                : en:Chapter 09
01:00:25.788                : en:Chapter 10
01:08:56.841                : en:Chapter 11
01:14:49.318                : en:Chapter 12


Джерело: &

31.10.2018 реліз оновлено з до 'у, додано оригінальну доріжку.


Золотий реліз (завантажене не впливає на рейтинг)
 Трекер:    Зареєстрований   

Завантажити / скачати мультфільм українською



відео для новачків



 Зареєстрований:   2018-10-31 19:40
 Розмір:   7.56 GB 
 Оцінка мультфільму:   8.3/10 (Голосів: 23)
 ЗАЛИШАЙТЕСЬ ЯКОМОГА ДОВШЕ НА РОЗДАЧІ! ЗАВАНТАЖИВ САМ - ДАЙ ЗАВАНТАЖИТИ ІНШИМ!
   
Інші релізи
   Зачарований принц / Charming (2018) 1080p H.265 Ukr/Eng -Star-Lord-  3 / 1   3.38 GB   2018-11-09 16:48 
   Зачарований принц / Charming (2018) igor911  26 / 0   1.45 GB   2018-10-28 09:40 
   Зачарований принц / Charming (2018) Remux 1080p Ukr/Eng igor911  14 / 0   15.49 GB   2018-10-28 09:28 
   Зачарований принц / Charming (2018) AVC 11FrYkT  17 / 0   1.36 GB   2018-08-28 17:13 
dentaman 
Свій


З нами з: 10.04.09
Востаннє: 12.11.18
Повідомлень: 58

2018-08-27 17:05  
та ладно, - сам олег винник :D :D :x
Anоnymous 
Попереджень: 1
Попереджень: 1 


З нами з: 25.08.18
Востаннє: 15.11.18
Повідомлень: 260

2018-08-27 17:42  
O.o
Іріс 
Частий відвідувач


З нами з: 20.09.12
Востаннє: 14.11.18
Повідомлень: 46

2018-08-27 17:57  
Я вже бачу переповнені зали кінотеатрів, які прийшли не на мультфільм, а щоб послухати голос Винника Wide grin
madagaskar1 
VIP


З нами з: 08.05.14
Востаннє: 14.11.18
Повідомлень: 597

2018-09-02 11:04  
непоганий, веселий мультик, хоча голос Винника не дуже впізнається.
Anonymous 







2018-10-31 19:42  
Реліз оновлено з до 'у
"золото" на тиждень

Ваш часовий пояс: GMT + 2 Години

Нова тема   Відповісти