Месники: Війна нескінченності / Avengers: Infinity War (2018) 1080p Ukr/Eng | Sub Eng

Нові коментарі

Нова тема   Відповісти
Сторінка:  1, 2  наступна
Автор Повідомлення
staf777 
Попереджень: 1
Попереджень: 1 


З нами з: 16.11.16
Востаннє: 16.10.18
Повідомлень: 1632

2018-08-26 20:23  
Месники: Війна нескінченності / Avengers: Infinity War (2018) 1080p Ukr/Eng | Sub Eng


Альтернативні постери























«Весь всесвіт. Раз і назавжди»



Жанр: бойовик, пригоди, фантастика, фентезі
Країна: США



Кінокомпанія: Marvel Studios
Режисер: Ентоні Руссо, Джо Руссо
Актори: Роберт Дауні мол., Кріс Гемсворт, Марк Руффало, Кріс Еванс, Скарлетт Йоханссон, Дон Чідл, Бенедікт Камбербетч, Том Голланд, Чедвік Боузман, Зоі Салдана

Сюжет:
Через довгі роки підготовки, божевільний титан Танос нарешті зміг досягти своєї мети – захопити всі шість каменів нескінченності, об'єднавши їх в могутній артефакт – Рукавичку Нескінченності, за допомогою якої Танос стає найсильнішою істотою у всесвіті, по могутності якої немає рівних. Всесвіт у страшній небезпеці. Небезпека загрожує всім, змушуючи людство знову звернутися за допомогою до Месників. Але як бути, якщо події «Громадянської Війни» і «Рагнарека» встигли попсувати і роз'єднати Найбільших Героїв Землі? Навіть за наявності нових членів команди в особі Людини-Павука і Доктора Стренджа, чи зможуть Месники забути розбіжності, і стати пліч-о-пліч проти страшної загрози, яка назрівала вже давно? І навіть якщо вони об'єднаються, чи зможуть Месники здолати Таноса, що володіє силою, якою навіть боги боялися б управляти? Адже є величезна ймовірність, що ця битва стане для них останньою.


Тривалість: 02:29:38
Якість: 1080p [DON]

Відео:
кодек:
розмір кадру: 1920x804
бітрейт: 14,9 Mб/с

Аудіо # 1:
мова: українська
переклад: професійний дубльований | студія LeDoyen
кодек: 5.1
бітрейт: 1509 кб/с

Аудіо # 2:
мова: українська
переклад: професійний дубльований | студія LeDoyen
кодек: 5.1
бітрейт: 640 кб/с

Аудіо # 3:
мова: англійська
переклад: оригінал
кодек: 5.1
бітрейт: 1509 кб/с

Аудіо # 4:
мова: англійська
переклад: коментарі
кодек: 2.0
бітрейт: 192 кб/с

Субтитри # 1: (Forced):
мова: українська
тип: програмні (м'які)
формат: *.srt

Субтитри # 2-7:
мова: англійська
тип: програмні (м'які)
формат: *.srt
Info
Код:
General
Unique ID                   : 268873428190749243002572903018984322168 (0xCA47237F3D28755934F93A6D86F73478)
Complete name               : D:\Фільми в HD\Фентезі\Avengers Infinity War (2018) 1080p [UKR_ENG] [Hurtom].
Format                      :
Format version              : Version 4 / Version 2
File size                   : 19.6 GiB
Duration                    : 2 h 29 min
Overall bit rate            : 18.8 Mb/s
Movie name                  : Avengers: Infinity War (2018) 1080p [UKR_ENG] [Hurtom]
Encoded date                : UTC 2018-09-14 05:32:14
Writing application         : v24.0.0 ('Beyond The Pale') 64-bit
Writing library             : libebml v1.3.6 + v1.4.9
Cover                       : Yes
Attachments                 : cover.jpg

Video
ID                          : 1
Format                      : AVC
Format/Info                 : Advanced Video Codec
Format profile              : [email protected]
Format settings             : CABAC / 5 Ref Frames
Format settings, CABAC      : Yes
Format settings, ReFrames   : 5 frames
Codec ID                    : V_MPEG4/ISO/AVC
Duration                    : 2 h 29 min
Bit rate                    : 14.9 Mb/s
Width                       : 1 920 pixels
Height                      : 804 pixels
Display aspect ratio        : 2.40:1
Frame rate mode             : Constant
Frame rate                  : 23.976 (24000/1001) FPS
Color space                 : YUV
Chroma subsampling          : 4:2:0
Bit depth                   : 8 bits
Scan type                   : Progressive
Bits/(Pixel*Frame)          : 0.404
Stream size                 : 15.6 GiB (79%)
Writing library             : core 155 r2867+82 a249126 t_mod_Custom_2 [[email protected] X86_64]
Encoding settings           : cabac=1 / ref=5 / deblock=1:-3:-3 / analyse=0x3:0x133 / me=umh / subme=11 / psy=1 / fade_compensate=0.00 / psy_rd=1.00:0.00 / mixed_ref=1 / me_range=32 / chroma_me=1 / trellis=2 / 8x8dct=1 / cqm=0 / deadzone=21,11 / fast_pskip=0 / chroma_qp_offset=-2 / threads=12 / lookahead_threads=3 / sliced_threads=0 / nr=0 / decimate=0 / interlaced=0 / bluray_compat=0 / constrained_intra=0 / fgo=0 / bframes=10 / b_pyramid=2 / b_adapt=2 / b_bias=0 / direct=3 / weightb=1 / open_gop=0 / weightp=2 / keyint=250 / keyint_min=23 / scenecut=40 / intra_refresh=0 / rc_lookahead=60 / rc=crf / mbtree=0 / crf=15.5000 / qcomp=0.65 / qpmin=0:0:0 / qpmax=69:69:69 / qpstep=4 / vbv_maxrate=62500 / vbv_bufsize=78125 / crf_max=0.0 / nal_hrd=none / filler=0 / ip_ratio=1.30 / pb_ratio=1.20 / aq=3:0.85 / aq-sensitivity=10.00 / aq-factor=1.00:1.00:1.00 / aq2=0 / aq3=0 / zones=755,1046,crf=13/16320,16512,crf=13.5/36376,36440,crf=13.5/36639,36715,crf=13/36750,37298,crf=14/59932,60056,crf=13/85756,87127,crf=14.5/107801,108135,crf=15/138838,138883,crf=14/138936,139334,crf=14.5/142046,142132,crf=14/148274,148351,crf=13.5/148595,148683,crf=13.5/155641,155678,crf=13.5/214530,214620,crf=13.5
Default                     : No
Forced                      : No
Color range                 : Limited
Matrix coefficients         : BT.709

Audio #1
ID                          : 2
Format                      :
Format/Info                 : Digital Theater Systems
Codec ID                    : A_DTS
Duration                    : 2 h 29 min
Bit rate mode               : Constant
Bit rate                    : 1 509 kb/s
Channel(s)                  : 6 channels
Channel positions           : Front: L C R, Side: L R, LFE
Sampling rate               : 48.0 kHz
Frame rate                  : 93.750 FPS (512 SPF)
Bit depth                   : 24 bits
Compression mode            : Lossy
Stream size                 : 1.57 GiB (8%)
Title                       : | студія LeDoyen
Language                    : Ukrainian
Default                     : Yes
Forced                      : Yes

Audio #2
ID                          : 3
Format                      : AC-3
Format/Info                 : Audio Coding 3
Codec ID                    : A_AC3
Duration                    : 2 h 29 min
Bit rate mode               : Constant
Bit rate                    : 640 kb/s
Channel(s)                  : 6 channels
Channel positions           : Front: L C R, Side: L R, LFE
Sampling rate               : 48.0 kHz
Frame rate                  : 31.250 FPS (1536 SPF)
Bit depth                   : 16 bits
Compression mode            : Lossy
Stream size                 : 684 MiB (3%)
Title                       : | студія LeDoyen
Language                    : Ukrainian
Service kind                : Complete Main
Default                     : No
Forced                      : No

Audio #3
ID                          : 4
Format                      :
Format/Info                 : Digital Theater Systems
Codec ID                    : A_DTS
Duration                    : 2 h 29 min
Bit rate mode               : Constant
Bit rate                    : 1 509 kb/s
Channel(s)                  : 6 channels
Channel positions           : Front: L C R, Side: L R, LFE
Sampling rate               : 48.0 kHz
Frame rate                  : 93.750 FPS (512 SPF)
Bit depth                   : 24 bits
Compression mode            : Lossy
Stream size                 : 1.57 GiB (8%)
Language                    : English
Default                     : No
Forced                      : No

Audio #4
ID                          : 5
Format                      : AC-3
Format/Info                 : Audio Coding 3
Codec ID                    : A_AC3
Duration                    : 2 h 29 min
Bit rate mode               : Constant
Bit rate                    : 192 kb/s
Channel(s)                  : 2 channels
Channel positions           : Front: L R
Sampling rate               : 48.0 kHz
Frame rate                  : 31.250 FPS (1536 SPF)
Bit depth                   : 16 bits
Compression mode            : Lossy
Stream size                 : 205 MiB (1%)
Title                       : Commentary
Language                    : English
Service kind                : Complete Main
Default                     : No
Forced                      : No

Text #1
ID                          : 6
Format                      : UTF-8
Codec ID                    : S_TEXT/UTF8
Codec ID/Info               : UTF-8 Plain Text
Duration                    : 2 h 17 min
Bit rate                    : 0 b/s
Count of elements           : 15
Stream size                 : 429 Bytes (0%)
Language                    : Ukrainian
Default                     : Yes
Forced                      : Yes

Text #2
ID                          : 7
Format                      : UTF-8
Codec ID                    : S_TEXT/UTF8
Codec ID/Info               : UTF-8 Plain Text
Duration                    : 1 s 126 ms
Bit rate                    : 134 b/s
Count of elements           : 1
Stream size                 : 19.0 Bytes (0%)
Title                       : Forced
Language                    : English
Default                     : No
Forced                      : No

Text #3
ID                          : 8
Format                      : UTF-8
Codec ID                    : S_TEXT/UTF8
Codec ID/Info               : UTF-8 Plain Text
Duration                    : 2 h 28 min
Bit rate                    : 42 b/s
Count of elements           : 1714
Stream size                 : 46.2 KiB (0%)
Title                       : Full
Language                    : English
Default                     : No
Forced                      : No

Text #4
ID                          : 9
Format                      : UTF-8
Codec ID                    : S_TEXT/UTF8
Codec ID/Info               : UTF-8 Plain Text
Duration                    : 2 h 28 min
Bit rate                    : 49 b/s
Count of elements           : 2067
Stream size                 : 53.9 KiB (0%)
Title                       : SDH
Language                    : English
Default                     : No
Forced                      : No

Text #5
ID                          : 10
Format                      : UTF-8
Codec ID                    : S_TEXT/UTF8
Codec ID/Info               : UTF-8 Plain Text
Duration                    : 2 h 28 min
Bit rate                    : 66 b/s
Count of elements           : 2067
Stream size                 : 72.1 KiB (0%)
Title                       : SDH-Colored
Language                    : English
Default                     : No
Forced                      : No

Text #6
ID                          : 11
Format                      : UTF-8
Codec ID                    : S_TEXT/UTF8
Codec ID/Info               : UTF-8 Plain Text
Duration                    : 2 h 29 min
Bit rate                    : 126 b/s
Count of elements           : 2966
Stream size                 : 138 KiB (0%)
Title                       : Commentary
Language                    : English
Default                     : No
Forced                      : No

Text #7
ID                          : 12
Format                      : UTF-8
Codec ID                    : S_TEXT/UTF8
Codec ID/Info               : UTF-8 Plain Text
Duration                    : 2 h 29 min
Bit rate                    : 136 b/s
Count of elements           : 3017
Stream size                 : 149 KiB (0%)
Title                       : SDH-Commentary
Language                    : English
Default                     : No
Forced                      : No

Menu
00:00:00.000                : en:"Thanos is Coming"
00:11:28.730                : en:Infinity Stones
00:18:13.884                : en:Fight for the Time Stone
00:27:23.809                : en:"Who the Hell are You Guys?"
00:35:48.813                : en:Wanda and Vision
00:42:23.541                : en:Knowhere
00:54:12.875                : en:Avengers Assemble
00:59:36.740                : en:"Take the Fight to Him"
01:05:07.153                : en:The Soul Stone
01:10:53.666                : en:Nidavellir
01:17:06.956                : en:Titan
01:24:14.758                : en:Vormir
01:31:08.004                : en:"Wakanda Forever"
01:42:00.406                : en:Stormbreaker
01:45:57.810                : en:Titan Confrontation
01:53:04.069                : en:"A Vision Situation"
01:58:52.917                : en:The Time Stone
02:03:58.181                : en:The End Game
02:11:13.282                : en:Aftermath
02:17:31.285                : en:End Credits



Підтримати купівлю інших фільмів можна тут.

Подяка пану AngryBirdsUA за доріжку.
За допомогу в створені реліза дякую пану igor911
Джерело: &
Особиста оцінка: 0 - не дивився


 Трекер:    Зареєстрований   

Завантажити / скачати фільм українською



відео для новачків



 Зареєстрований:   2018-09-14 09:50
 Розмір:   19.6 GB 
 Оцінка фільму:   9.4/10 (Голосів: 110)
   
Інші релізи
   Месники: Війна нескінченності / Avengers: Infinity War (2018) 720p Ukr/Eng | Sub Eng (60 fps) Drool  21 / 2   8.24 GB   2018-09-24 18:00 
   Месники: Війна нескінченності / Avengers: Infinity War (2018) UHD Remux 4K 2160p 4K HDR H.265 Ukr/Eng | Sub Eng Vladuk88  11 / 0   58.21 GB   2018-09-22 18:13 
   Месники: Війна нескінченності / Avengers: Infinity War (2018) 720p-mini Drool  22 / 0   2.9 GB   2018-09-14 01:27 
   Месники: Війна нескінченності / Avengers: Infinity War (2018) 1080p 3D [Half OverUnder] Ukr/Eng | Sub Eng igor911  9 / 0   13.57 GB   2018-09-13 23:10 
   Месники: Війна нескінченності / Avengers: Infinity War (2018) igor911  69 / 5   1.73 GB   2018-09-13 22:23 
   Месники: Війна нескінченності / Avengers: Infinity War (2018) Ukr/Eng | Sub Eng igor911  20 / 2   2.98 GB   2018-09-13 22:02 
   Месники: Війна нескінченності / Avengers: Infinity War (2018) AVC Ukr/Eng | Sub Eng 11FrYkT  44 / 2   2.77 GB   2018-09-13 19:37 
   Месники: Війна нескінченності / Avengers: Infinity War (2018) 720p Ukr/Eng | Sub Eng 11FrYkT  37 / 0   7.93 GB   2018-09-13 19:28 
   Месники: Війна нескінченності / Avengers: Infinity War (2018) Remux 1080p Ukr/Eng | Sub Eng 11FrYkT  28 / 0   37.09 GB   2018-09-13 19:04 
AlexKraftwerk 
Новенький


З нами з: 15.02.12
Востаннє: 16.10.18
Повідомлень: 13

2018-08-26 20:42  
Нарешті, реліз у 1080p - автору наперед велике дякую ! Чекаю Wide grin
Ebantyay 
Новенький


З нами з: 11.10.14
Востаннє: 12.10.18
Повідомлень: 3

2018-08-26 20:49  
Таке ж нестерпне очікування фільму украінською, як і самої прем`єри у кіно 3 місяці тому. Дуже якісний фільм для свого жанру, та й взагалі.
KeryaS 
Свій


З нами з: 01.09.14
Востаннє: 17.10.18
Повідомлень: 95

2018-08-26 23:35  
Переглянув вдруге після кінотеатру тільки для того щоб посилити розчарування)) Мотивація Таноса десь на рівні табуретки) Поділ на 2 частини взагалі не витримує жодної критики. Я взагалі не розумію як настільки розвинутий кіновсесвіт можна було спаскудити, ось ЦИМ?

PS. Думаю після релізів капітана Марвел та другої частини, все має стати на свої місця, але поки що це навіть на 2 з 10 не тягне...

Nikko033 
VIP


З нами з: 31.12.12
Востаннє: 17.10.18
Повідомлень: 492

2018-08-27 00:33  
KeryaS цікава ви людина. якщо мені фільм настільки не подобається, то є і перший раз навряд чи додивлюсь, а ви його двічі переглянули о_О

makatum 
Новенький


З нами з: 28.09.16
Востаннє: 13.10.18
Повідомлень: 4

2018-08-27 00:58  
лайно безмізке. америкоси зовсім отупіли
maxxs 
Новенький


З нами з: 28.09.17
Востаннє: 09.10.18
Повідомлень: 3

2018-08-27 04:45  
Виникло питаннячко: а Open Matte-версію з нашою озвучкою ніхто не планує зробити? Rolleyes (2)
KeryaS 
Свій


З нами з: 01.09.14
Востаннє: 17.10.18
Повідомлень: 95

2018-08-27 10:52  
Nikko033
Без страждань не досягти прозріння Happy
Мені подобається як організований в них кіновсесвіт. Думаю наступного разу перегляну обидві частини, після виходу другої, щоб скласти остаточне враження.

denja_pek 
Новенький


З нами з: 21.05.17
Востаннє: 14.10.18
Повідомлень: 15

2018-08-27 15:59  
makatum
Шановний, чого ви очікували від кінокоміксів? Фільму року та всі статуетки Оскару? Це - кіноатракціон аби розважитись та не напрягатись під час перегляду, не сприймайте все серйозно

Fro5t 
Новенький


З нами з: 07.08.17
Востаннє: 17.10.18
Повідомлень: 4

2018-08-27 20:19  
дуже дякую за реліз!
eviloleg 
Новенький


З нами з: 28.02.09
Востаннє: 15.10.18
Повідомлень: 10

2018-08-27 20:47  
4K реліз планується?
igor911 
Відео Гуртом
Відео Гуртом


З нами з: 18.01.08
Востаннє: 17.10.18
Повідомлень: 11241

2018-08-27 20:50  
eviloleg написано:
4K реліз планується?

питай в релізерів 4k https://toloka.to/tracker.php?nm=4k

SAKSAGANSKY 
Частий відвідувач


З нами з: 13.05.14
Востаннє: 15.10.18
Повідомлень: 44

2018-08-28 12:55  
Хороший фільм, але якось вже не те враження після другого перегляду.
Igorban 
Свій


З нами з: 24.10.17
Востаннє: 16.10.18
Повідомлень: 86

2018-08-28 14:19  
В цілому, зійде. 5/10
bozuron 
Новенький


З нами з: 12.02.17
Востаннє: 07.10.18
Повідомлень: 5

2018-08-28 19:40  
хтось в курсі коли буде людина мураха та оса на гуртом?
Sidewaves 
Новенький


З нами з: 04.03.15
Востаннє: 02.10.18
Повідомлень: 2

2018-08-29 19:02  
bozuron написано:
хтось в курсі коли буде людина мураха та оса на гуртом?

Їх ще досі в азії в кінотеатрах крутять, тому нескоро.

JanusK 
Новенький


З нами з: 15.01.17
Востаннє: 06.10.18
Повідомлень: 3

2018-08-30 21:22  
Дякую.
A HEVK H.265 10bit Буде?

11FrYkT 
Модератор відео


З нами з: 20.02.11
Востаннє: 17.10.18
Повідомлень: 5079

2018-08-30 22:25  
JanusK написано:

Дякую.
A HEVK H.265 10bit Буде?

https://toloka.to/t93257-30
шукайте по колекціях.

UA_Hunter 
Новенький


З нами з: 16.12.10
Востаннє: 16.10.18
Повідомлень: 17

2018-08-30 22:38  
Нарешті! ДЯКУЮ!!!
makatum 
Новенький


З нами з: 28.09.16
Востаннє: 13.10.18
Повідомлень: 4

2018-08-31 21:11  
denja_pek написано:
Шановний, чого ви очікували від кінокоміксів? Фільму року та всі статуетки Оскару? Це - кіноатракціон аби розважитись та не напрягатись під час перегляду, не сприймайте все серйозно

нахріна мені ті оскари!!! самі кажете не напрягатися - ось я і хочу спецефекти, екшн та гарний хеппі-енд, а не оце тупе лайно. для фільмів, над якими треба замислюватися, не наймають 100500 компаній для спецефектів...

denja_pek 
Новенький


З нами з: 21.05.17
Востаннє: 14.10.18
Повідомлень: 15

2018-09-01 15:33  
makatum
Ви самі не знаєте чого хочете. На що вам скаржитися? Ви не платили за фільм, а лише витратили свій час

armogun 
Поважний учасник


З нами з: 04.05.13
Востаннє: 17.10.18
Повідомлень: 164

2018-09-01 18:19  
Фільм дуже сподобався. Класна шиза. Суперовий гумор ! УВАГА СПОЙЛЕР !
Цікаво кому Фюрі сос відправив коли всі в ауті ! Невже в паралельний всесвіт.. В Всесвіт DC ^)

denja_pek 
Новенький


З нами з: 21.05.17
Востаннє: 14.10.18
Повідомлень: 15

2018-09-01 18:25  
armogun
Він надіслав сигнал Капітану Марвел

armogun 
Поважний учасник


З нами з: 04.05.13
Востаннє: 17.10.18
Повідомлень: 164

2018-09-01 18:33  
denja_pek
Дітлахи задовбали одних і других питаннями: хто крутіший ? Залізна людина чи людина-кажан.
Важко уявити які козирі в ЩИТа. А Супермен може закрутити Землю...

denja_pek 
Новенький


З нами з: 21.05.17
Востаннє: 14.10.18
Повідомлень: 15

2018-09-01 18:35  
armogun
Мені теж цікаво які козирі в Щ.И.Т.а, який розпався ще чотири роки тому...

denja_pek 
Новенький


З нами з: 21.05.17
Востаннє: 14.10.18
Повідомлень: 15

2018-09-01 20:03  
makatum
До чого це взагалі? То вам не подобається фільм, ви кажете що хочете розслабитись і даєте приклад, що на "розумні" фільми не потрібно мільйон студій для спецефектів... У ваших повідомленняї немає конструктиву – про що захотіли, про те й пишите. Я вам, до речі, не „бляхав”.

eevviill 
Свій


З нами з: 13.08.08
Востаннє: 17.10.18
Повідомлень: 80

2018-09-10 12:14  
9.3
Дуже вболівав за Таноса. Хоча необхідна повна очистка.

P.S. Відео/звук. Присутня бл.. на... я ху... звук всього голосніший в 4 рази за звук розмов.

Lite_an 
Новенький


З нами з: 02.01.15
Востаннє: 17.10.18
Повідомлень: 10

2018-09-11 20:24  
Фільм не закінчений, повинна бути друга серія, бо фінал суперечить усім творам марвел. І тепер цікаво чекати яким чином психа з манією величі здолають інші герої чи не герої.
Maters 
VIP


З нами з: 27.03.12
Востаннє: 17.10.18
Повідомлень: 1524

2018-09-12 20:11  
Коли з'явились перші Месники і кількох кіногероїв вирішили звести в одному фільмі - це був прорив. Це була крута ідея, яка сподобалась багатьом фанатам світу Марвел і не тільки їм.
І хоча зараз від них ВАУ-ефекту немає, загалом мені фільм сподобався. Цікаво стежити за тим що там вигадають далі. В своєму жанрі я його оцінюю десь на 8,5/10, та на IMDB оцінки ставити не буду, бо якось не круто, що легендарні фільми світового кінематографу все нижче і нижче опускаються з топових місць через те, що їх місця займають сучасні екшени.

staf777 
Попереджень: 1
Попереджень: 1 


З нами з: 16.11.16
Востаннє: 16.10.18
Повідомлень: 1632

2018-09-14 09:52  
Замінив доріжку на 5.1 @ 1509 kbps 
Ваш часовий пояс: GMT + 2 Години

Нова тема   Відповісти Сторінка:  1, 2  наступна