Формула 1. Сезон 2018. Етап 13. Гран-Прі Бельгії. Гонка (26.08.2018) HDTV 1080i

Нові коментарі

Нова тема   Відповісти
Автор Повідомлення
sergiyko.5 
VIP


З нами з: 25.02.16
Востаннє: 21.10.20
Повідомлень: 3586

2018-08-26 19:46  
Формула 1. Сезон 2018. Етап 13. Гран-Прі Бельгії. Гонка (26.08.2018) HDTV 1080i


Формула 1. Сезон 2018. Етап 13. Гран-Прі Бельгії. Гонка (26.08.2018) HDTV 1080i

Жанр: Перегони Формули 1
Країна: Бельгія
Телеканал: Перший автомобільний HD
Коментатор: Максим Подзігун

Опис:
Гонка тринадцятого етапу Гран-Прі Бельгії 2018 року.


Тривалість: 01:55:16
Якість: HDTV

Відео: кодек: розмір кадру: 1920 х 1080 бітрейт: 5500 кб/с
Аудіо: мова: українська кодек: 2.0 бітрейт: 128 кб/с
Про файл:

General
Unique ID : 183276861058660042464771876690792222684 (0x89E1D6E855328EE33E4654598C930FDC)
Complete name : D:\Torrents\SPORT\Formula 1\F1.2018.Race\F1.2018.13.Belgian.Race.1080i.HDTV.Ukr.
Format :
Format version : Version 4 / Version 2
File size : 4.47 GiB
Duration : 1 h 55 min
Overall bit rate : 5 551 kb/s
Encoded date : UTC 2018-08-26 16:39:53
Writing application : v25.0.0 ('Prog Noir') 64-bit
Writing library : libebml v1.3.6 + v1.4.9

Video
ID : 1
Format : AVC
Format/Info : Advanced Video Codec
Format profile : [email protected]
Format settings : CABAC / 4 Ref Frames
Format settings, CABAC : Yes
Format settings, ReFrames : 4 frames
Codec ID : V_MPEG4/ISO/AVC
Duration : 1 h 55 min
Bit rate : 5 424 kb/s
Width : 1 920 pixels
Height : 1 080 pixels
Display aspect ratio : 16:9
Frame rate mode : Constant
Frame rate : 25.000 FPS
Standard : Component
Color space : YUV
Chroma subsampling : 4:2:0
Bit depth : 8 bits
Scan type : MBAFF
Scan type, store method : Interleaved fields
Scan order : Top Field First
Bits/(Pixel*Frame) : 0.105
Stream size : 4.37 GiB (98%)
Language : English
Default : Yes
Forced : No
Color range : Limited
Color primaries : BT.709
Transfer characteristics : BT.709
Matrix coefficients : BT.709

Audio
ID : 2
Format :
Format/Info : Advanced Audio Codec
Format profile : LC
Codec ID : A_AAC-2
Duration : 1 h 55 min
Bit rate : 125 kb/s
Channel(s) : 2 channels
Channel positions : Front: L R
Sampling rate : 48.0 kHz
Frame rate : 46.875 FPS (1024 SPF)
Compression mode : Lossy
Stream size : 103 MiB (2%)
Title : 1 Avto | Максим Подзігун
Language : Ukrainian
Default : Yes
Forced : No
Скріншоти:


Автор запису: sergiyko


 Трекер:    Зареєстрований   

Завантажити / скачати торрент



відео для новачків



 Зареєстрований:   2018-08-26 19:46
 Розмір:   4.47 GB 
 Оцінка:   9.7/10 (Голосів: 27)
   
VicCob 
Свій


З нами з: 16.06.10
Востаннє: 11.10.20
Повідомлень: 57

2018-08-26 19:51  
Дякую!
Umbrella.Corps 
Свій


З нами з: 09.04.17
Востаннє: 27.09.20
Повідомлень: 60

2018-08-26 19:54  
Дякую)
kimif1 
Новенький


З нами з: 01.01.17
Востаннє: 17.08.20
Повідомлень: 5

2018-08-26 20:04  
Щиро дякую!
T0rN 
Новенький


З нами з: 13.12.15
Востаннє: 17.10.20
Повідомлень: 3

2018-08-26 20:26  
Дуже дякую!
Mihalev 
Новенький


З нами з: 07.04.18
Востаннє: 03.08.20
Повідомлень: 1

2018-08-26 21:41  
дуже дякую
taramon 
Частий відвідувач


З нами з: 28.09.09
Востаннє: 19.10.20
Повідомлень: 45

2018-08-27 07:51  
дуже дякую!!!
ukma77 
Новенький


З нами з: 16.04.10
Востаннє: 30.09.20
Повідомлень: 19

2018-08-27 10:04  
дякую за оперативність!
Ваш часовий пояс: GMT + 2 Години

Нова тема   Відповісти