Месники: Війна нескінченності / Avengers: Infinity War (2018) 1080p 3D [Half OverUnder] Ukr/Eng | Sub Eng

Нові коментарі

Нова тема   Відповісти
Автор Повідомлення
Anonymous 







2018-08-26 18:34  
Месники: Війна нескінченності / Avengers: Infinity War (2018) 1080p 3D [Half OverUnder] Ukr/Eng | Sub Eng

Усі українські постери:













































Жанр: бойовик, пригодницький, фантастика, фентезі
Країна: США



Кінокомпанія: Marvel Studios
Режисер: Ентоні Руссо, Джо Руссо
Актори: Роберт Дауні мол., Кріс Гемсворт, Марк Руффало, Кріс Еванс, Скарлетт Йоханссон, Дон Чідл, Бенедикт Камбербетч, Том Голланд, Чедвік Боузман, Зоі Салдана та інші

Сюжет:
Через довгі роки підготовки, божевільний титан Танос нарешті зміг досягти своєї мети – захопити всі шість каменів нескінченності, об'єднавши їх в могутній артефакт – Рукавичку Нескінченності, за допомогою якої Танос стає найсильнішою істотою у всесвіті, по могутності якої немає рівних. Всесвіт у страшній небезпеці. Небезпека загрожує всім, змушуючи людство знову звернутися за допомогою до Месників. Але як бути, якщо події «Громадянської Війни» і «Рагнарека» встигли попсувати і роз'єднати Найбільших Героїв Землі? Навіть за наявності нових членів команди в особі Людини-Павука і Доктора Стренджа, чи зможуть Месники забути розбіжності, і стати пліч-о-пліч проти страшної загрози, яка назрівала вже давно? І навіть якщо вони об'єднаються, чи зможуть Месники здолати Таноса, що володіє силою, якою навіть боги боялися б управляти? Адже є величезна ймовірність, що ця битва стане для них останньою.
Офіційні українські трейлери та відео:











Тривалість: 02:29:21
Якість: 1080p 3D

Відео:
кодек:
розмір кадру: 1920 х 1080
бітрейт: 10 Мб/с
формат 3D: Half OverUnder / Вертикальна анаморфна стереопара
порядок ракурсів: лівий ракурс перший
Відео для перегляду на 3D обладнанні!

Аудіо # 1:
мова: українська
переклад: професійний дубльований | студія LeDoyen
кодек: 5.1
бітрейт: 640 кб/с

Аудіо # 2:
мова: українська
переклад: професійний дубльований | студія LeDoyen
кодек: 5.1
бітрейт: 1509 кб/с

Аудіо # 3:
мова: українська
переклад: професійний дубльований | студія LeDoyen
кодек: 2.0
бітрейт: 192 кб/с
Інформація про дубляж
Режисер дубляжу - Костянтин Лінартович
Перекладач - Олег Колесніков
Студія дубляжу - LeDoyen

Ролі дублювали:
Тоні Старк / Залізна Людина - Олег Лепенець,
Тор - Дмитро Гаврилов,
Брюс Беннер / Халк - Роман Чорний,
Стів Роджерс / Капітан Америка - Дмитро Лінартович,
Наташа Романова / Чорна Вдова - Наталя Романько-Кисельова,
Джеймс Родс / Бойова Машина - Дмитро Вікулов,
Доктор Стрендж - Андрій Мостренко,
Пітер Паркер / Людина-павук - Руслан Драпалюк
Т'чала / Чорна Пантера - Олексій Череватенко
Ґамора - Ксенія Любчик
Небула - Аліна Проценко
Локі - Дмитро Терещук
Ванда Максімова / Багряна Відьма - Дарина Муращенко,
Сем Вілсон / Яструб - Денис Жупник
Бакі Барнс / Зимовий Солдат - Юрій Кудрявець,
Геймдал - Григорій Герман

Окойє - Тамара Антропова
Ейтрі - Микола Боклан,
Вонг - Сергій Солопай
Богомолиця - Ірина Василенко
Дрекс - Володимир Кокотунов
Ґрут - Борис Георгієвський,
Ракета - Назар Задніпровський,
Пепер Паттс - Ірина Ткаленко,
Колекціонер - Андрій Твердак,
Танос - Михайло Кришталь,
Пітер Квіл / Зоряний Лицар - Володимир Заєць
Шурі - Олена Бушевська
Ебонове Воло - Роман Чупіс,

А також: Олександр Шевчук, Юлія Перенчук, Олександр Печериця, Олександр Ігнатуша, Марія Єременко, Костянтин Лінартович, Андрій Ісаєнко, Анастасія Чумаченко, Сергій Кияшко, Софія Олещенко, Павло Голов, Леонід Попадько, Вікторія Кулініч, Юрій Висоцький та інші.
Аудіо # 4:
мова: англійська
переклад: оригінал
кодек: 5.1
бітрейт: 640 кб/с

Субтитри # 1:
мова: українська (форсовані)
тип: програмні (м'які)
формат: *.srt
примітка: також присутні окремим файлом для сумісності з деякими пристроями

Субтитри # 2-3:
мова: англійська (повні, SDH)
тип: програмні (м'які)
формат: *.srt

Збережено оригінальні розділи, як на Blu-ray
Info
Код:
Complete name               : Avengers. Infinity War (2018) [Ukr,Eng sub.Eng] 1080p 3D HalfOU [Hurtom].
Format                      :
Format version              : Version 4
File size                   : 13.6 GiB
Duration                    : 2 h 29 min
Overall bit rate            : 13.0 Mb/s
Movie name                  : Месники: Війна нескінченності / Avengers: Infinity War (2018) [Ukr,Eng sub.Eng] 1080p 3D Half OverUnder [Hurtom]
Released date               : 2018
Encoded date                : UTC 2018-09-13 19:42:57
Writing application         : v26.0.0 ('In The Game') 64-bit
Writing library             : libebml v1.3.6 + v1.4.9
Cover                       : Yes
Comment                     : https://www.imdb.com/title/tt4154756/
Attachments                 : cover.jpg
DIRECTOR                    : Ентоні Руссо, Джо Руссо
GENRE                       : бойовик, пригодницький, фантастика, фентезі
SYNOPSIS                    : Через довгі роки підготовки, божевільний титан Танос нарешті зміг досягти своєї мети – захопити всі шість каменів нескінченності, об'єднавши їх в могутній артефакт – Рукавичку Нескінченності, за допомогою якої Танос стає найсильнішою істотою у всесвіті, по могутності якої немає рівних. Всесвіт у страшній небезпеці. Небезпека загрожує всім, змушуючи людство знову звернутися за допомогою до Месників. Але як бути, якщо події «Громадянської Війни» і «Рагнарека» встигли попсувати і роз'єднати Найбільших Героїв Землі? Навіть за наявності нових членів команди в особі Людини-Павука і Доктора Стренджа, чи зможуть Месники забути розбіжності, і стати пліч-о-пліч проти страшної загрози, яка назрівала вже давно? І навіть якщо вони об'єднаються, чи зможуть Месники здолати Таноса, що володіє силою, якою навіть боги боялися б управляти? Адже є величезна ймовірність, що ця битва стане для них останньою...
Url                         : https://toloka.to/t94639

Video
ID                          : 1
Format                      : AVC
Format/Info                 : Advanced Video Codec
Format profile              : [email protected]
Format settings             : CABAC / 4 Ref Frames
Format settings, CABAC      : Yes
Format settings, ReFrames   : 4 frames
Codec ID                    : V_MPEG4/ISO/AVC
Duration                    : 2 h 29 min
Bit rate                    : 10 000 kb/s
Width                       : 1 920 pixels
Height                      : 1 080 pixels
Display aspect ratio        : 16:9
Frame rate mode             : Constant
Frame rate                  : 23.976 (24000/1001) FPS
Color space                 : YUV
Chroma subsampling          : 4:2:0
Bit depth                   : 8 bits
Scan type                   : Progressive
Bits/(Pixel*Frame)          : 0.201
Stream size                 : 10.5 GiB (77%)
Title                       : Месники: Війна нескінченності / Avengers: Infinity War (2018) 1080p 3D Half OverUnder [Ash61]
Writing library             : core 146 r2538 121396c
Encoding settings           : cabac=1 / ref=4 / deblock=1:-3:-3 / analyse=0x3:0x113 / me=umh / subme=10 / psy=1 / psy_rd=1.00:0.00 / mixed_ref=1 / me_range=32 / chroma_me=1 / trellis=2 / 8x8dct=1 / cqm=0 / deadzone=21,11 / fast_pskip=0 / chroma_qp_offset=-2 / threads=12 / lookahead_threads=3 / sliced_threads=0 / nr=0 / decimate=0 / interlaced=0 / bluray_compat=0 / constrained_intra=0 / bframes=10 / b_pyramid=2 / b_adapt=2 / b_bias=0 / direct=3 / weightb=1 / open_gop=0 / weightp=2 / keyint=250 / keyint_min=23 / scenecut=40 / intra_refresh=0 / rc_lookahead=60 / rc=2pass / mbtree=0 / bitrate=10000 / ratetol=1.0 / qcomp=0.70 / qpmin=0 / qpmax=69 / qpstep=4 / cplxblur=20.0 / qblur=0.5 / vbv_maxrate=40000 / vbv_bufsize=30000 / nal_hrd=none / filler=0 / frame-packing=4 / ip_ratio=1.40 / pb_ratio=1.30 / aq=1:0.70
Language                    : English
Default                     : Yes
Forced                      : No

Audio #1
ID                          : 2
Format                      : AC-3
Format/Info                 : Audio Coding 3
Commercial name             : Dolby Digital
Codec ID                    : A_AC3
Duration                    : 2 h 29 min
Bit rate mode               : Constant
Bit rate                    : 640 kb/s
Channel(s)                  : 6 channels
Channel layout              : L R C LFE Ls Rs
Sampling rate               : 48.0 kHz
Frame rate                  : 31.250 FPS (1536 SPF)
Bit depth                   : 16 bits
Compression mode            : Lossy
Stream size                 : 684 MiB (5%)
Title                       : Dub [LeDoyen] 5.1 640 Kbps
Language                    : Ukrainian
Service kind                : Complete Main
Default                     : Yes
Forced                      : No

Audio #2
ID                          : 3
Format                      :
Format/Info                 : Digital Theater Systems
Codec ID                    : A_DTS
Duration                    : 2 h 29 min
Bit rate mode               : Constant
Bit rate                    : 1 509 kb/s
Channel(s)                  : 6 channels
Channel layout              : C L R Ls Rs LFE
Sampling rate               : 48.0 kHz
Frame rate                  : 93.750 FPS (512 SPF)
Bit depth                   : 24 bits
Compression mode            : Lossy
Stream size                 : 1.57 GiB (12%)
Title                       : Dub [LeDoyen] 5.1 1509 Kbps
Language                    : Ukrainian
Default                     : No
Forced                      : No

Audio #3
ID                          : 4
Format                      : AC-3
Format/Info                 : Audio Coding 3
Commercial name             : Dolby Digital
Codec ID                    : A_AC3
Duration                    : 2 h 29 min
Bit rate mode               : Constant
Bit rate                    : 192 kb/s
Channel(s)                  : 2 channels
Channel layout              : L R
Sampling rate               : 48.0 kHz
Frame rate                  : 31.250 FPS (1536 SPF)
Bit depth                   : 16 bits
Compression mode            : Lossy
Stream size                 : 205 MiB (1%)
Title                       : Dub [LeDoyen, іТunes] 2.0 192 Kbps
Language                    : Ukrainian
Service kind                : Complete Main
Default                     : No
Forced                      : Yes

Audio #4
ID                          : 5
Format                      : AC-3
Format/Info                 : Audio Coding 3
Commercial name             : Dolby Digital
Codec ID                    : A_AC3
Duration                    : 2 h 29 min
Bit rate mode               : Constant
Bit rate                    : 640 kb/s
Channel(s)                  : 6 channels
Channel layout              : L R C LFE Ls Rs
Sampling rate               : 48.0 kHz
Frame rate                  : 31.250 FPS (1536 SPF)
Bit depth                   : 16 bits
Compression mode            : Lossy
Stream size                 : 684 MiB (5%)
Title                       : Original, 5.1 640 Kbps
Language                    : English
Service kind                : Complete Main
Default                     : No
Forced                      : No

Text #1
ID                          : 6
Format                      : UTF-8
Codec ID                    : S_TEXT/UTF8
Codec ID/Info               : UTF-8 Plain Text
Duration                    : 2 h 17 min
Bit rate                    : 0 b/s
Count of elements           : 15
Stream size                 : 429 Bytes (0%)
Title                       : UKR FORCED
Language                    : Ukrainian
Default                     : No
Forced                      : Yes

Text #2
ID                          : 7
Format                      : UTF-8
Codec ID                    : S_TEXT/UTF8
Codec ID/Info               : UTF-8 Plain Text
Duration                    : 2 h 28 min
Bit rate                    : 42 b/s
Count of elements           : 1724
Stream size                 : 46.1 KiB (0%)
Title                       : Eng Full
Language                    : English
Default                     : No
Forced                      : No

Text #3
ID                          : 8
Format                      : UTF-8
Codec ID                    : S_TEXT/UTF8
Codec ID/Info               : UTF-8 Plain Text
Duration                    : 2 h 28 min
Bit rate                    : 49 b/s
Count of elements           : 2067
Stream size                 : 53.9 KiB (0%)
Title                       : Eng SDH
Language                    : English
Default                     : No
Forced                      : No

Menu
00:00:00.000                : : 1. "Thanos is Coming"
00:11:28.729                : : 2. Infinity Stones
00:18:13.884                : : 3. Fight for the Time Stone
00:27:23.807                : : 4. "Who the Hell are You Guys?"
00:35:48.813                : : 5. Wanda and Vision
00:42:23.541                : : 6. Knowhere
00:54:12.873                : : 7. Avengers Assemble
00:59:36.739                : : 8. "Take the Fight to Him"
01:05:07.152                : : 9. The Soul Stone
01:10:53.666                : : 10. Nidavellir
01:17:06.954                : : 11. Titan
01:24:14.757                : : 12. Vormir
01:31:08.003                : : 13. "Wakanda Forever"
01:42:00.404                : : 14. Stormbreaker
01:45:57.809                : : 15. Titan Confrontation
01:53:04.068                : : 16. "A Vision Situation"
01:58:52.917                : : 17. The Time Stone
02:03:58.180                : : 18. The End Game
02:11:13.282                : : 19. Aftermath
02:17:31.283                : : 20. End Credits
Скріншоти











Підтримати купівлю інших фільмів можна тут.


Джерело: &
Подяка AngryBirdsUA за доріжку, Hanway'ю за створення якісного 5.1 звуку та Ash61 за ріп.

13.09.2018 реліз оновлено: додано якісний український 5.1 звук ( та )


 Трекер:    Зареєстрований   

Завантажити / скачати фільм українською



відео для новачків



 Зареєстрований:   2018-09-13 22:10
 Розмір:   13.57 GB 
 Оцінка фільму:   8.8/10 (Голосів: 16)
 ЗАЛИШАЙТЕСЬ ЯКОМОГА ДОВШЕ НА РОЗДАЧІ! ЗАВАНТАЖИВ САМ - ДАЙ ЗАВАНТАЖИТИ ІНШИМ.
   
Інші релізи
   Месники: Війна нескінченності / Avengers: Infinity War (2018) 720p Ukr/Eng | Sub Eng (60 fps) Drool  32 / 0   8.24 GB   2018-09-24 17:00 
   Месники: Війна нескінченності / Avengers: Infinity War (2018) UHD Remux 4K 2160p 4K HDR H.265 Ukr/Eng | Sub Eng Vladuk88  13 / 2   58.21 GB   2018-09-22 17:13 
   Месники: Війна нескінченності / Avengers: Infinity War (2018) 1080p Ukr/Eng | Sub Eng staf777  38 / 0   19.6 GB   2018-09-14 08:50 
   Месники: Війна нескінченності / Avengers: Infinity War (2018) 720p-mini Drool  35 / 1   2.9 GB   2018-09-14 00:27 
   Месники: Війна нескінченності / Avengers: Infinity War (2018) igor911  62 / 4   1.73 GB   2018-09-13 21:23 
   Месники: Війна нескінченності / Avengers: Infinity War (2018) Ukr/Eng | Sub Eng igor911  18 / 1   2.98 GB   2018-09-13 21:02 
   Месники: Війна нескінченності / Avengers: Infinity War (2018) AVC Ukr/Eng | Sub Eng 11FrYkT  42 / 0   2.77 GB   2018-09-13 18:37 
   Месники: Війна нескінченності / Avengers: Infinity War (2018) 720p Ukr/Eng | Sub Eng 11FrYkT  32 / 0   7.93 GB   2018-09-13 18:28 
   Месники: Війна нескінченності / Avengers: Infinity War (2018) Remux 1080p Ukr/Eng | Sub Eng 11FrYkT  19 / 0   37.09 GB   2018-09-13 18:04 
dimon-2018 
Свій


З нами з: 06.05.18
Востаннє: 17.12.18
Повідомлень: 117

2018-08-26 19:10  
https://toloka.to/t90047#1025113, в цій групі є інформація про дубляж до цього фільму. Кому потрібно - прошу.
Anonymous 







2018-08-26 20:20  
реліз готовий до завантаження
darklight94 
Новенький


З нами з: 08.07.18
Востаннє: 17.12.18
Повідомлень: 23

2018-08-26 20:23  
Буде 5.1?
11FrYkT 
Модератор відео


З нами з: 20.02.11
Востаннє: 17.12.18
Повідомлень: 5273

2018-08-26 20:28  
darklight94 написано:
Буде 5.1?

Може досить в усіх темах запитувати? Якщо буде то оновиться

Anonymous 







2018-08-26 20:46  
darklight94 написано:
Буде 5.1?

Швидше за все ліцензії 5.1 не буде (На блурейманії блуреї анонсовані на 12.09, української не заявлено).

Wensun 
Свій


З нами з: 20.01.09
Востаннє: 15.12.18
Повідомлень: 117

2018-08-26 21:28  
5.1 нема і не буде, оскільки Українські споживачі не купляють блюреї, того і нема 5.1. і то стосується всіх фільмів вже зо 3 роки... Вибачуха.
zendelmaul 
Новенький


З нами з: 27.02.15
Востаннє: 15.12.18
Повідомлень: 21

2018-08-27 18:19  
Дякую, шукав саме ТАКИЙ реліз!
roma6230 
Новенький


З нами з: 19.02.18
Востаннє: 17.12.18
Повідомлень: 1

2018-08-28 09:09  
Дякую за 3D! Побільше б стрічок від Ash61 українською.
Anonymous 







2018-09-13 22:12  
13.09.2018 реліз оновлено: додано якісний український 5.1 звук в та

Додано через 33 секунди:

"золото" на тиждень для заохочення підтримки релізу.

ika1963 
Відео Гуртом - дизайнер
Відео Гуртом - дизайнер


З нами з: 13.05.10
Востаннє: 12.12.18
Повідомлень: 259

2018-09-13 22:47  
Де можна окремо скачати 5.1 звук в та ?
ok197 
Новенький


З нами з: 14.10.15
Востаннє: 14.12.18
Повідомлень: 2

2018-09-21 22:49  
класний фільм, добрий 3д. Дякую
Ваш часовий пояс: GMT + 2 Години

Нова тема   Відповісти