Месники: Війна нескінченності / Avengers: Infinity War (2018) Ukr/Eng | Sub Eng

Нові коментарі

Нова тема   Відповісти
Автор Повідомлення
Anonymous 







2018-08-26 19:11  
Месники: Війна нескінченності / Avengers: Infinity War (2018) Ukr/Eng | Sub Eng

Усі українські постери:













































Жанр: бойовик, пригодницький, фантастика, фентезі
Країна: США



Кінокомпанія: Marvel Studios
Режисер: Ентоні Руссо, Джо Руссо
Актори: Роберт Дауні мол., Кріс Гемсворт, Марк Руффало, Кріс Еванс, Скарлетт Йоханссон, Дон Чідл, Бенедикт Камбербетч, Том Голланд, Чедвік Боузман, Зоі Салдана та інші

Сюжет:
Через довгі роки підготовки, божевільний титан Танос нарешті зміг досягти своєї мети – захопити всі шість каменів нескінченності, об'єднавши їх в могутній артефакт – Рукавичку Нескінченності, за допомогою якої Танос стає найсильнішою істотою у всесвіті, по могутності якої немає рівних. Всесвіт у страшній небезпеці. Небезпека загрожує всім, змушуючи людство знову звернутися за допомогою до Месників. Але як бути, якщо події «Громадянської Війни» і «Рагнарека» встигли попсувати і роз'єднати Найбільших Героїв Землі? Навіть за наявності нових членів команди в особі Людини-Павука і Доктора Стренджа, чи зможуть Месники забути розбіжності, і стати пліч-о-пліч проти страшної загрози, яка назрівала вже давно? І навіть якщо вони об'єднаються, чи зможуть Месники здолати Таноса, що володіє силою, якою навіть боги боялися б управляти? Адже є величезна ймовірність, що ця битва стане для них останньою.
Офіційні українські трейлери та відео:











Тривалість: 02:29:21
Якість:

Відео:
кодек:
розмір кадру: 720 х 304
бітрейт: 2009 кб/с

Аудіо # 1:
мова: українська
переклад: професійний дубльований | студія LeDoyen
кодек: 5.1
бітрейт: 448 кб/с
Інформація про дубляж
Режисер дубляжу - Костянтин Лінартович
Перекладач - Олег Колесніков
Студія дубляжу - LeDoyen

Ролі дублювали:
Тоні Старк / Залізна Людина - Олег Лепенець,
Тор - Дмитро Гаврилов,
Брюс Беннер / Халк - Роман Чорний,
Стів Роджерс / Капітан Америка - Дмитро Лінартович,
Наташа Романова / Чорна Вдова - Наталя Романько-Кисельова,
Джеймс Родс / Бойова Машина - Дмитро Вікулов,
Доктор Стрендж - Андрій Мостренко,
Пітер Паркер / Людина-павук - Руслан Драпалюк
Т'чала / Чорна Пантера - Олексій Череватенко
Ґамора - Ксенія Любчик
Небула - Аліна Проценко
Локі - Дмитро Терещук
Ванда Максімова / Багряна Відьма - Дарина Муращенко,
Сем Вілсон / Яструб - Денис Жупник
Бакі Барнс / Зимовий Солдат - Юрій Кудрявець,
Геймдал - Григорій Герман

Окойє - Тамара Антропова
Ейтрі - Микола Боклан,
Вонг - Сергій Солопай
Богомолиця - Ірина Василенко
Дрекс - Володимир Кокотунов
Ґрут - Борис Георгієвський,
Ракета - Назар Задніпровський,
Пепер Паттс - Ірина Ткаленко,
Колекціонер - Андрій Твердак,
Танос - Михайло Кришталь,
Пітер Квіл / Зоряний Лицар - Володимир Заєць
Шурі - Олена Бушевська
Ебонове Воло - Роман Чупіс,

А також: Олександр Шевчук, Юлія Перенчук, Олександр Печериця, Олександр Ігнатуша, Марія Єременко, Костянтин Лінартович, Андрій Ісаєнко, Анастасія Чумаченко, Сергій Кияшко, Софія Олещенко, Павло Голов, Леонід Попадько, Вікторія Кулініч, Юрій Висоцький та інші.
Аудіо # 2:
мова: англійська
переклад: оригінал
кодек: 5.1
бітрейт: 384 кб/с

Субтитри # 1:
мова: українська (форсовані)
тип: програмні (м'які)
формат: *.srt

Субтитри # 2-3:
мова: англійська (повні, SDH)
тип: програмні (м'які)
формат: *.srt
Info
Код:
General
Complete name               : Avengers. Infinity War (2018) [Ukr,Eng] [Hurtom].avi
Format                      : AVI
Format/Info                 : Audio Video Interleave
Format profile              : OpenDML
File size                   : 2.98 GiB
Duration                    : 2 h 29 min
Overall bit rate            : 2 857 kb/s
Movie name                  : Месники: Війна нескінченності / Avengers: Infinity War (2018) [Ukr,Eng] [Hurtom]
Genre                       : бойовик, пригодницький, фантастика, фентезі
Recorded date               : 13.09.2018
Writing application         : VirtualDubModUkr 1.5.10.2 (build 2542/release)
Writing library             : VirtualDubMod build 2542/release
Comment                     : https://toloka.to/t94636

Video
ID                          : 0
Format                      : MPEG-4 Visual
Format profile              : Advanced [email protected]
Format settings             : BVOP1 / Custom Matrix
Format settings, BVOP       : 1
Format settings, QPel       : No
Format settings, GMC        : No warppoints
Format settings, Matrix     : Custom
Codec ID                    :
Codec ID/Hint               :
Duration                    : 2 h 29 min
Bit rate                    : 2 009 kb/s
Width                       : 720 pixels
Height                      : 304 pixels
Display aspect ratio        : 2.35:1
Frame rate                  : 23.976 (24000/1001) FPS
Color space                 : YUV
Chroma subsampling          : 4:2:0
Bit depth                   : 8 bits
Scan type                   : Progressive
Compression mode            : Lossy
Bits/(Pixel*Frame)          : 0.383
Stream size                 : 2.10 GiB (70%)
Writing library             : 67

Audio #1
ID                          : 1
Format                      : AC-3
Format/Info                 : Audio Coding 3
Commercial name             : Dolby Digital
Codec ID                    : 2000
Duration                    : 2 h 29 min
Bit rate mode               : Constant
Bit rate                    : 448 kb/s
Channel(s)                  : 6 channels
Channel layout              : L R C LFE Ls Rs
Sampling rate               : 48.0 kHz
Frame rate                  : 31.250 FPS (1536 SPF)
Bit depth                   : 16 bits
Compression mode            : Lossy
Stream size                 : 479 MiB (16%)
Alignment                   : Split accross interleaves
Interleave, duration        : 42  ms (1.00 video frame)
Interleave, preload duratio : 500  ms
Title                       : UKR DUB [LeDoyen]
Service kind                : Complete Main

Audio #2
ID                          : 2
Format                      : AC-3
Format/Info                 : Audio Coding 3
Commercial name             : Dolby Digital
Codec ID                    : 2000
Duration                    : 2 h 29 min
Bit rate mode               : Constant
Bit rate                    : 384 kb/s
Channel(s)                  : 6 channels
Channel layout              : L R C LFE Ls Rs
Sampling rate               : 48.0 kHz
Frame rate                  : 31.250 FPS (1536 SPF)
Bit depth                   : 16 bits
Compression mode            : Lossy
Stream size                 : 410 MiB (13%)
Alignment                   : Split accross interleaves
Interleave, duration        : 42  ms (1.00 video frame)
Interleave, preload duratio : 500  ms
Service kind                : Complete Main


Підтримати купівлю інших фільмів можна тут.


Джерело: &
Подяка Hanway'ю за створення якісного звуку.

13.09.2018 реліз оновлено: українську стереодоріжку з замінено на якісну 5.1


 Трекер:    Зареєстрований   

Завантажити / скачати фільм українською



відео для новачків



 Зареєстрований:   2018-09-13 22:02
 Розмір:   2.98 GB 
 Оцінка фільму:   9.4/10 (Голосів: 91)
   
Інші релізи
   Месники: Війна нескінченності / Avengers: Infinity War (2018) 720p Ukr/Eng | Sub Eng (60 fps) Drool  22 / 0   8.24 GB   2018-09-24 18:00 
   Месники: Війна нескінченності / Avengers: Infinity War (2018) UHD Remux 4K 2160p 4K HDR H.265 Ukr/Eng | Sub Eng Vladuk88  15 / 1   58.21 GB   2018-09-22 18:13 
   Месники: Війна нескінченності / Avengers: Infinity War (2018) 1080p Ukr/Eng | Sub Eng staf777  47 / 0   19.6 GB   2018-09-14 09:50 
   Месники: Війна нескінченності / Avengers: Infinity War (2018) 720p-mini Drool  29 / 1   2.9 GB   2018-09-14 01:27 
   Месники: Війна нескінченності / Avengers: Infinity War (2018) 1080p 3D [Half OverUnder] Ukr/Eng | Sub Eng igor911  7 / 1   13.57 GB   2018-09-13 23:10 
   Месники: Війна нескінченності / Avengers: Infinity War (2018) igor911  61 / 4   1.73 GB   2018-09-13 22:23 
   Месники: Війна нескінченності / Avengers: Infinity War (2018) AVC Ukr/Eng | Sub Eng 11FrYkT  39 / 0   2.77 GB   2018-09-13 19:37 
   Месники: Війна нескінченності / Avengers: Infinity War (2018) 720p Ukr/Eng | Sub Eng 11FrYkT  41 / 0   7.93 GB   2018-09-13 19:28 
   Месники: Війна нескінченності / Avengers: Infinity War (2018) Remux 1080p Ukr/Eng | Sub Eng 11FrYkT  32 / 0   37.09 GB   2018-09-13 19:04 
Nikko033 
VIP


З нами з: 31.12.12
Востаннє: 19.10.18
Повідомлень: 493

2018-08-27 00:44  
несподівана кінцівка, але якби не Соколине око і Людина мураха, то все могло закінчитись значно гірше. ну і звісно Дракс...

Anonymous 







2018-09-13 22:04  
Реліз оновлено: українську стереодоріжку з замінено на якісну 5.1
Ваш часовий пояс: GMT + 2 Години

Нова тема   Відповісти