Робін Гуд [Режисерська версія] / Robin Hood [Director's Cut] (2010) AVC Ukr/Eng | Sub Ukr/Eng

Нові коментарі

Нова тема   Відповісти
Автор Повідомлення
staf777 
Відео Гуртом - підтримка та поширення
Відео Гуртом - підтримка та поширення


З нами з: 16.11.16
Востаннє: 06.12.19
Повідомлень: 3038

2018-08-26 16:11  
Робін Гуд [Режисерська версія] / Robin Hood [Director's Cut] (2010) AVC Ukr/Eng | Sub Ukr/Eng

Робін Гуд [Режисерська версія] / Robin Hood [Director's Cut] (2010) AVC Ukr/Eng | Sub Ukr/Eng


Жанр: екшн, пригодницький, драма
Країна: США, Велика Британія



Кінокомпанія: Universal Pictures, Imagine Entertainment, Relativity Media, Scott Free Productions
Режисер: Рідлі Скотт / Ridley Scott
Актори: Рассел Кроу / Russell Crowe, Кейт Бланшет / Cate Blanchett, Макс вон Сайдов / Max von Sydow, Вільям Герт / William Hurt, Марк Стронґ / Mark Strong, Оскар Айзек / Oscar Isaac, Денні Г'юстон / Danny Huston, Ейлін Аткінс / Eileen Atkins, Марк Едді / Mark Addy, Меттью Макфейден / Matthew Macfadyen, Кевін Дюран / Kevin Durand, Скотт Ґраймз / Scott Grimes, Алан Дойле / Alan Doyle, Дуґлас Годж / Douglas Hodge, Леа Сейду / Lea Seydoux

Сюжет:
Чергова картина в нескінченному ряду екранізацій історії Робіна Локслі, відомого лучника та благородного розбійника - тепер від майстра середньовічних батальних фільмів Рідлі Скота. Фольклорний герой залишається, та акцент зміщується від боротьби з багатими за бідних в бік війни з норманськими загарбниками.


Тривалість: 02:35:48 [Режисерська версія]
Якість: AVC
Відео:
кодек:
розмір кадру: 1024х424
бітрейт: 2520 кб/с

Аудіо # 1:
мова: українська
переклад: професійний дубльований | студія LeDoyen
кодек: 5.1
бітрейт: 384 кб/с
Інформація про дубляж:

Перекладач: Федір Сидорук
Режисер дубляжу: Ольга Фокіна
Звукорежисер: Марія Нестеренко
Координатор проекту: Аліна Гаєвська
Ролі дублювали:
Расселл Кроу /Робін Лонґстрейд - Євген Пашин,
Кейт Бланшет / Маріон Локслі - Лариса Руснак,
Оскар Айзек / Принц Джон - Андрій Самінін,
Вільям Герт / Вілльям Маршал - Олександр Ігнатуша,
Макс Фон Зюдов / Сір Волтер Локслі - Анатолій Барчук,
Денні Г'юстон / Король Левове Серце - Олексій Богданович,
Аллан Дойл / Аллан А'Дайл - Михайло Жонін,
Кевін Дюранд / Маленький Джон - Борис Георгієвський,
Скот Ґраймс / Вілл Скарлет - Андрій Твердак,
Марк Стронґ / Ґодфрі - Микола Боклан,
Метью Макфайден / Шериф Нотінгемський - Михайло Войчук?,
а також: Валентина Гришокіна, Володимир Жогло, Сергій Озіряний, Андрій Мостренко?, Дмитро Вікулов? та інші.

Фільм надано компанією UPI, дубльовано студією LeDoyen на замовлення компанії B&H Film Distribution.
Аудіо # 2:
мова: англійська
переклад: оригінал
кодек: 5.1
бітрейт: 448 кб/с

Субтитри:
мова: українська
тип: програмні (м'які)
формат: *.srt

Субтитри:
мова: англійська
тип: програмні (м'які)
формат: *.srt
Info
General
Unique ID : 204631134309366059519658758539703717623 (0x99F285DD90224B7BDF94487D30678EF7)
Complete name : D:\KINOZAL\Robin Hood [ Director's Cut] (2010) AVC [UKR_ENG] [Hurtom].
Format :
Format version : Version 4 / Version 2
File size : 3.65 GiB
Duration : 2 h 35 min
Overall bit rate : 3 354 kb/s
Movie name : Robin Hood [ Director's Cut] (2010) AVC [UKR_ENG] [Hurtom]
Encoded date : UTC 2018-08-26 13:20:02
Writing application : v24.0.0 ('Beyond The Pale') 64-bit
Writing library : libebml v1.3.6 + v1.4.9
Cover : Yes
Attachments : cover.jpg

Video
ID : 1
Format : AVC
Format/Info : Advanced Video Codec
Format profile : [email protected]
Format settings : CABAC / 8 Ref Frames
Format settings, CABAC : Yes
Format settings, ReFrames : 8 frames
Codec ID : V_MPEG4/ISO/AVC
Duration : 2 h 35 min
Bit rate : 2 520 kb/s
Width : 1 024 pixels
Height : 424 pixels
Display aspect ratio : 2.40:1
Frame rate mode : Constant
Frame rate : 23.976 FPS
Color space : YUV
Chroma subsampling : 4:2:0
Bit depth : 8 bits
Scan type : Progressive
Bits/(Pixel*Frame) : 0.242
Stream size : 2.74 GiB (75%)
Writing library : core 115 r1937 aa21558
Encoding settings : cabac=1 / ref=8 / deblock=1:-3:-3 / analyse=0x3:0x113 / me=umh / subme=8 / psy=1 / psy_rd=1.00:0.10 / mixed_ref=0 / me_range=32 / chroma_me=1 / trellis=2 / 8x8dct=1 / cqm=0 / deadzone=21,11 / fast_pskip=1 / chroma_qp_offset=-3 / threads=6 / sliced_threads=0 / nr=0 / decimate=1 / interlaced=0 / bluray_compat=0 / constrained_intra=0 / bframes=8 / b_pyramid=2 / b_adapt=2 / b_bias=0 / direct=3 / weightb=1 / open_gop=0 / weightp=0 / keyint=240 / keyint_min=23 / scenecut=40 / intra_refresh=0 / rc_lookahead=30 / rc=2pass / mbtree=1 / bitrate=2520 / ratetol=1.0 / qcomp=0.60 / qpmin=15 / qpmax=47 / qpstep=3 / cplxblur=20.0 / qblur=0.5 / ip_ratio=1.40 / aq=1:1.10
Language : English
Default : Yes
Forced : No

Audio #1
ID : 2
Format : AC-3
Format/Info : Audio Coding 3
Codec ID : A_AC3
Duration : 2 h 35 min
Bit rate mode : Constant
Bit rate : 384 kb/s
Channel(s) : 6 channels
Channel positions : Front: L C R, Side: L R, LFE
Sampling rate : 48.0 kHz
Frame rate : 31.250 FPS (1536 SPF)
Bit depth : 16 bits
Compression mode : Lossy
Stream size : 428 MiB (11%)
Title : [UA-DUB]
Language : Ukrainian
Service kind : Complete Main
Default : Yes
Forced : Yes

Audio #2
ID : 3
Format : AC-3
Format/Info : Audio Coding 3
Codec ID : A_AC3
Duration : 2 h 35 min
Bit rate mode : Constant
Bit rate : 448 kb/s
Channel(s) : 6 channels
Channel positions : Front: L C R, Side: L R, LFE
Sampling rate : 48.0 kHz
Frame rate : 31.250 FPS (1536 SPF)
Bit depth : 16 bits
Compression mode : Lossy
Stream size : 499 MiB (13%)
Language : English
Service kind : Complete Main
Default : No
Forced : No

Text #1
ID : 4
Format : UTF-8
Codec ID : S_TEXT/UTF8
Codec ID/Info : UTF-8 Plain Text
Duration : 2 h 34 min
Bit rate : 31 b/s
Count of elements : 1303
Stream size : 36.0 KiB (0%)
Language : Ukrainian
Default : No
Forced : No

Text #2
ID : 5
Format : UTF-8
Codec ID : S_TEXT/UTF8
Codec ID/Info : UTF-8 Plain Text
Duration : 2 h 29 min
Bit rate : 64 b/s
Count of elements : 1473
Stream size : 70.4 KiB (0%)
Language : English
Default : No
Forced : No

Menu
00:00:00.000 : en:1. Called to Ranks
00:12:05.975 : en:2. An Honest Man
00:18:27.440 : en:3. The King Is Dead
00:25:11.552 : en:4. Ambushed
00:33:31.426 : en:5. Rise and Rise Again
00:38:36.981 : en:6. Paying Tax
00:48:42.586 : en:7. Difficult Times
00:57:11.887 : en:8. Hard News
01:04:14.309 : en:9. A Fair Contract
01:10:41.612 : en:10. Welcome Home
01:23:24.624 : en:11. Men of the Hood
01:32:17.115 : en:12. Time Has Come
01:40:30.149 : en:13. Knowing Your Past
01:49:15.882 : en:14. Never Give Up
01:56:06.418 : en:15. Taking No Prisoners
02:02:29.091 : en:16. Pick Your Targets
02:09:20.669 : en:17. En Garde
02:18:21.418 : en:18. Surrender
02:22:48.685 : en:19. The Legend Begins
02:27:08.611 : en:20. End Titles
Скріншоти



Джерело: &
Особиста оцінка: 0 - не дивився


 Трекер:    Зареєстрований   

Завантажити / скачати фільм українською



відео для новачків



 Зареєстрований:   2018-08-26 16:11
 Розмір:   3.65 GB 
 Оцінка фільму:   9.8/10 (Голосів: 20)
   
Ваш часовий пояс: GMT + 2 Години

Нова тема   Відповісти