Загнаний / The Hunted (2003) 720p 2xUkr/Eng | Sub Eng

Нові коментарі

Нова тема   Відповісти
Автор Повідомлення
Anonymous 







2018-08-26 12:36  
Загнаний / The Hunted (2003) 720p 2xUkr/Eng | Sub Eng

Загнаний / The Hunted (2003) 720p 2xUkr/Eng | Sub Eng


Жанр: трилер, бойовик, драма
Країна: США



Кінокомпанія: Lakeshore Entertainment, Paramount
Режисер: Вільям Фрідкін / William Friedkin
Актори: Томмі Лі Джоунс /Tommy Lee Jones/, Бенісіо Дель Торо /Benicio Del Toro/, Конні Нільсен /Connie Nielsen/, Дженна Бойд /Jenna Boyd/, Леслі Стефенсон /Leslie Stefanson/, Хосе Зуніга /Jose Zuniga

Сюжет:
Спеціаліст з підготовки елітного спецназу Ел Ті Бонем, щоправда вже на пенсії, приєднується до команди ФБР, яка йде слідами жорстокого вбивці. Цей невловимий кіллер - один з найобдарованіших учнів Ел Ті. Йому не потрібен дім - в лісі він почуває себе невразливим. Йому не потрібні гроші - все необхідне для життя він може здобути сам. Йому не потрібна зброя - в його руках палиця чи камінь страшніші, ніж кулемет. Він ідеальний воїн, і лише той, хто навчив його цій майстерності вбивати, здатен зупинити мисливця, котрий полює на людей...


Тривалість: 01:34:36
Якість: 720p
Відео:
кодек:
розмір кадру: 1280х696
бітрейт: 5 972 кб/с

Аудіо # 1:
мова: українська
переклад: багатоголосий закадровий , ,
кодек: 2.0
бітрейт: 192 кб/с

Аудіо # 2:
мова: українська
переклад: двоголосий закадровий
кодек: 5.1
бітрейт: 448 кб/с

Аудіо # 3:
мова: англійська
переклад: оригінал
кодек: 5.1
бітрейт: 640 кб/с

Субтитри:
мова: англійська
тип: програмні (м'які)
формат: *.srt
Info
General
Unique ID : 237043835026343068970375883688588794582 (0xB254FB646A414BFDB65FFD9F919ADAD6)
Format :
Format version : Version 4 / Version 2
File size : 4.79 GiB
Duration : 1 h 34 min
Overall bit rate : 7 250 kb/s
Encoded date : UTC 2018-08-26 09:30:00
Writing application : v6.1.0 ('Old Devil') built on Mar 4 2013 09:10:42
Writing library : libebml v1.3.0 + v1.4.0

Video
ID : 1
Format : AVC
Format/Info : Advanced Video Codec
Format profile : [email protected]
Format settings : CABAC / 5 Ref Frames
Format settings, CABAC : Yes
Format settings, ReFrames : 5 frames
Codec ID : V_MPEG4/ISO/AVC
Duration : 1 h 34 min
Bit rate : 5 972 kb/s
Width : 1 280 pixels
Height : 696 pixels
Display aspect ratio : 1.85:1
Frame rate mode : Constant
Frame rate : 23.976 (24000/1001) FPS
Color space : YUV
Chroma subsampling : 4:2:0
Bit depth : 8 bits
Scan type : Progressive
Bits/(Pixel*Frame) : 0.280
Stream size : 3.85 GiB (80%)
Writing library : core 98 r1643 59a9e03
Encoding settings : cabac=1 / ref=5 / deblock=1:0:0 / analyse=0x3:0x133 / me=umh / subme=7 / psy=1 / psy_rd=1.00:0.15 / mixed_ref=1 / me_range=16 / chroma_me=1 / trellis=1 / 8x8dct=1 / cqm=0 / deadzone=21,11 / fast_pskip=0 / chroma_qp_offset=-3 / threads=12 / sliced_threads=0 / nr=0 / decimate=0 / interlaced=0 / constrained_intra=0 / bframes=3 / b_pyramid=2 / b_adapt=1 / b_bias=0 / direct=1 / weightb=1 / weightp=2 / keyint=250 / keyint_min=25 / scenecut=40 / intra_refresh=0 / rc_lookahead=40 / rc=2pass / mbtree=1 / bitrate=5972 / ratetol=1.0 / qcomp=0.60 / qpmin=10 / qpmax=51 / qpstep=4 / cplxblur=20.0 / qblur=0.5 / ip_ratio=1.40 / aq=2:1.00
Language : English
Default : No
Forced : No

Audio #1
ID : 2
Format : AC-3
Format/Info : Audio Coding 3
Codec ID : A_AC3
Duration : 1 h 34 min
Bit rate mode : Constant
Bit rate : 192 kb/s
Channel(s) : 2 channels
Channel positions : Front: L R
Sampling rate : 48.0 kHz
Frame rate : 31.250 FPS (1536 SPF)
Bit depth : 16 bits
Compression mode : Lossy
Stream size : 130 MiB (3%)
Title : UKR (ICTV, 2+2, ТРК "Україна")
Language : Ukrainian
Service kind : Complete Main
Default : Yes
Forced : Yes

Audio #2
ID : 3
Format : AC-3
Format/Info : Audio Coding 3
Codec ID : A_AC3
Duration : 1 h 34 min
Bit rate mode : Constant
Bit rate : 448 kb/s
Channel(s) : 6 channels
Channel positions : Front: L C R, Side: L R, LFE
Sampling rate : 48.0 kHz
Frame rate : 31.250 FPS (1536 SPF)
Bit depth : 16 bits
Compression mode : Lossy
Stream size : 303 MiB (6%)
Title : UKR (K1)
Language : Ukrainian
Service kind : Complete Main
Default : No
Forced : No

Audio #3
ID : 4
Format : AC-3
Format/Info : Audio Coding 3
Codec ID : A_AC3
Duration : 1 h 34 min
Bit rate mode : Constant
Bit rate : 640 kb/s
Channel(s) : 6 channels
Channel positions : Front: L C R, Side: L R, LFE
Sampling rate : 48.0 kHz
Frame rate : 31.250 FPS (1536 SPF)
Bit depth : 16 bits
Compression mode : Lossy
Stream size : 433 MiB (9%)
Language : English
Service kind : Complete Main
Default : No
Forced : No

Text
ID : 5
Format : UTF-8
Codec ID : S_TEXT/UTF8
Codec ID/Info : UTF-8 Plain Text
Language : English
Default : No
Forced : No
Скріншоти









За українські доріжки подяка п.: Neytreenor, SweetN, drakon87, Merdiff, _oles
За український постер подяка п. VigbMAK
Особиста подяка пану denixx за надану матеріальну допомогу на підтримку цього і майбутніх релізів.
Джерело:


Срібний реліз (на рейтинг впливає 50% завантаженого)
 Трекер:    Зареєстрований   

Завантажити / скачати фільм українською



відео для новачків



 Зареєстрований:   2018-08-26 12:36
 Розмір:   4.79 GB 
 Оцінка фільму:   8.9/10 (Голосів: 8)
   
Інші релізи
   Загнаний / The Hunted (2003) 1080p 2xUkr/Eng | Sub Eng Timm  0 / 0   8.42 GB   2020-06-19 00:58 
   Загнаний / The Hunted (2003) Remux 1080p 2xUkr/Eng | Sub Ukr/Eng kryk-v.ya.  2 / 0   17.45 GB   2020-04-14 17:23 
   Загнаний / The Hunted (2003) 2xUkr/Eng I Sub Eng _oles  3 / 1   2.05 GB   2011-01-23 15:32 
Ваш часовий пояс: GMT + 2 Години

Нова тема   Відповісти