Янголи Пекла - Hells (2008) 720p Ukr/Jap | Sub Eng

Нові коментарі

Нова тема   Відповісти
Останній раз роздавалося Konstantin_Exorcist (2019-02-17)
Автор Повідомлення
Konstantin_Exorcist 
Свій


З нами з: 18.11.14
Востаннє: 16.02.19
Повідомлень: 89

2018-08-25 23:04  
Янголи Пекла - Hells (2008) 720p Ukr/Jap | Sub Eng

Янголи Пекла - Hells (2008) 720p Ukr/Jap | Sub Eng


Жанр: Комедія, Фентезі, Надприроднє
Країна: Японія



5.70 ((521) голосів)

Кінокомпанія: Madhouse Studios
Режисер: Ямакава Йошікі
Ролі озвучують:
Савашіро Міюкі
Фукуен Місато
Кіучі Хіденобу
Кішіо Дайсуке
Тачікі Фуміхіко
Мацуока Юкі
Кошімідзу Амі

Сюжет:
Амаґане Лінне нещодавно переїхала в нове місто та поспішає в свій перший день у нову школу!
Проте по дорозі до школи трапляється дещо дивне і дівчинка, нічого не підозрюючи потрапляє в досить незвичне місце з не менш надзвичайними істотами, з якими вона хоче стати друзями, не дивлячись на те, що потрапила вона... у пекло! Звичайно, вона хоче потрапити додому, проте ще ні кому не вдавалося звідти вибратися, та чи вдасться їй?
Враховуючи те, що чим більше часу вона залишається в ньому, тим більше цікавих речей вона дізнається, розкриваються секрети та справжня суть тих, кого вона, здавалося б вже взнала, навіть про себе вона дізналася таке, у що не одразу повіриш! То чи зможе наша юна героїня, з цікавою історією та дуже колоритними персонажами, потрапити додому, та допомогти тим, хто потребує її допомоги?!


Тривалість: 1 серія: 01:57:51

Якість:
Відео:
кодек:
розмір кадру: 1280 х 720
бітрейт: 3 368 кб/с

Аудіо:
мова: українська
переклад: двоголосий закадровий
кодек: 2.0
бітрейт: 192 кб/с

Аудіо:
мова: японська
переклад: оригінал
кодек: 5.1
бітрейт: 408 кб/с

Субтитри:
мова: українська (написи)
тип: програмні (м'які)
формат: *.

Субтитри:
мова: англійська (повні)
тип: програмні (м'які)
формат: *.

Переклад: sei
Текст читали: Regnant, Smile2You
Робота зі звуком: Regnant
Info
General
General
Unique ID : 308769313611290036004598348419275966909 (0xE84ACE83D684CC3417D7FF99DCEC49BD)
Complete name : E:\Фейрі Даб\[FairyDUB]_Hells_[Regnant_Smile2You]_[BDrip720p].
Format :
Format version : Version 4 / Version 2
File size : 3.28 GiB
Duration : 1 h 57 min
Overall bit rate : 3 980 kb/s
Encoded date : UTC 2018-08-26 18:09:16
Writing application : v25.0.0 ('Prog Noir') 64-bit
Writing library : libebml v1.3.6 + v1.4.9
Attachments : ARCHRISTY_0.ttf / ARIAL_4.TTF / ARLRDBD_1.TTF / Barthowheel Regular_1.ttf / Brushmark_0.ttf / cinnamon cake_0.ttf / Fontin_Sans.otf / PEIXE__0.ttf / pixelmix_0.ttf / Qlassik_TB_0.otf / RIOTfont1_0.ttf / saizen1_0.ttf / Stroke_0.ttf / THURSTON_erc_0.ttf / times_0.ttf / tt0284m_1.ttf / tt0861m_0.ttf

Video
ID : 1
Format : AVC
Format/Info : Advanced Video Codec
Format profile : High [email protected]
Format settings : CABAC / 16 Ref Frames
Format settings, CABAC : Yes
Format settings, ReFrames : 16 frames
Codec ID : V_MPEG4/ISO/AVC
Duration : 1 h 57 min
Bit rate : 3 368 kb/s
Width : 1 280 pixels
Height : 720 pixels
Display aspect ratio : 16:9
Frame rate mode : Constant
Frame rate : 23.976 (24000/1001) FPS
Color space : YUV
Chroma subsampling : 4:2:0
Bit depth : 10 bits
Scan type : Progressive
Bits/(Pixel*Frame) : 0.152
Stream size : 2.77 GiB (85%)
Writing library : core 144 r2525 40bb568
Encoding settings : cabac=1 / ref=16 / deblock=1:0:0 / analyse=0x3:0x133 / me=umh / subme=10 / psy=1 / psy_rd=1.00:0.00 / mixed_ref=1 / me_range=24 / chroma_me=1 / trellis=2 / 8x8dct=1 / cqm=0 / deadzone=21,11 / fast_pskip=0 / chroma_qp_offset=-2 / threads=12 / lookahead_threads=3 / sliced_threads=0 / nr=0 / decimate=1 / interlaced=0 / bluray_compat=0 / constrained_intra=0 / bframes=16 / b_pyramid=2 / b_adapt=2 / b_bias=0 / direct=1 / weightb=1 / open_gop=0 / weightp=2 / keyint=250 / keyint_min=23 / scenecut=40 / intra_refresh=0 / rc=crf / mbtree=0 / crf=17.0 / qcomp=0.60 / qpmin=0 / qpmax=32 / qpstep=4 / ip_ratio=1.40 / pb_ratio=1.30 / aq=2:1.00
Language : English
Default : Yes
Forced : No
Color range : Limited
Matrix coefficients : BT.709

Audio #1
ID : 2
Format :
Format/Info : Advanced Audio Codec
Format profile : LC
Codec ID : A_AAC-2
Duration : 1 h 57 min
Bit rate : 192 kb/s
Channel(s) : 2 channels
Channel positions : Front: L R
Sampling rate : 48.0 kHz
Frame rate : 46.875 FPS (1024 SPF)
Compression mode : Lossy
Stream size : 162 MiB (5%)
Title : Двоголосий закадровий (Regnant, Smile2You)
Language : Ukrainian
Default : Yes
Forced : Yes

Audio #2
ID : 3
Format :
Format/Info : Advanced Audio Codec
Format profile : LC
Codec ID : A_AAC-2
Duration : 1 h 57 min
Bit rate : 408 kb/s
Channel(s) : 6 channels
Channel positions : Front: L C R, Side: L R, LFE
Sampling rate : 48.0 kHz
Frame rate : 46.875 FPS (1024 SPF)
Compression mode : Lossy
Delay relative to video : 20 ms
Stream size : 344 MiB (10%)
Title : Оригінальна
Language : Japanese
Default : No
Forced : No

Text #1
ID : 4
Format :
Codec ID : S_TEXT/
Codec ID/Info : Advanced Sub Station Alpha
Duration : 1 h 48 min
Bit rate : 1 600 b/s
Count of elements : 5624
Compression mode : Lossless
Stream size : 1.24 MiB (0%)
Title : Українська Написи (sei)
Language : Ukrainian
Default : Yes
Forced : Yes

Text #2
ID : 5
Format :
Codec ID : S_TEXT/
Codec ID/Info : Advanced Sub Station Alpha
Duration : 1 h 57 min
Bit rate : 2 062 b/s
Count of elements : 15752
Compression mode : Lossless
Stream size : 1.74 MiB (0%)
Title : Англійські повні
Language : English
Default : No
Forced : No

Menu
00:00:00.000 : en:00:00:00.000
00:06:45.655 : en:00:06:45.655
00:16:24.108 : en:00:16:24.108
00:21:40.966 : en:00:21:40.966
00:26:03.437 : en:00:26:03.437
00:37:51.019 : en:00:37:51.019
00:46:08.099 : en:00:46:08.099
00:54:46.492 : en:00:54:46.492
00:58:45.230 : en:00:58:45.230
01:08:06.916 : en:01:08:06.916
01:15:42.246 : en:01:15:42.246
01:25:21.491 : en:01:25:21.491
01:33:11.920 : en:01:33:11.920
01:44:55.789 : en:01:44:55.789
01:51:46.033 : en:01:51:46.033
01:55:47.524 : en:01:55:47.524
Скріншоти


Джерело:

Особиста оцінка: 10 - без зайвих вагань рекомендую всім!


Авторський реліз (завантажувати можна без реєстрації)
 Трекер:    Зареєстрований   

Завантажити / скачати аніме українською



відео для новачків



 Зареєстрований:   2018-08-26 20:20
 Розмір:   3.28 GB 
 Оцінка аніме:   8.7/10 (Голосів: 3)
   
11FrYkT 
Модератор відео


З нами з: 20.02.11
Востаннє: 16.02.19
Повідомлень: 5577

2018-08-26 15:42  
Konstantin_Exorcist написано:

Ролі озвучують:
Sawashiro Miyuki
Fukuen Misato
Kiuchi Hidenobu
Kishio Daisuke
Tachiki Fumihiko
Matsuoka Yuki
Koshimizu Ami

має бути українською

також додайте оригінальну доріжку вона є обов*язковою

Konstantin_Exorcist 
Свій


З нами з: 18.11.14
Востаннє: 16.02.19
Повідомлень: 89

2018-08-26 20:41  
В процесі дооформлення, замінено торрент файл.
njamnjam 
Новенький


З нами з: 16.10.10
Востаннє: 30.01.19
Повідомлень: 17

2018-08-26 21:25  
З назвою ви це влучно... Я чекав на брутальний байкерський екшн, або військову драму)
https://en.wikipedia.org/wiki/Hells_Angels

EvGaS 
Попереджень: 1
Попереджень: 1 


З нами з: 27.02.12
Востаннє: 16.02.19
Повідомлень: 5555

2018-08-29 08:37  
Специфічний мультик.

Суміш анімешних стереотипів з усілякими пекельно-металюзькими мультфільмами Заходу.
Якщо вам сподобались Кіт Фріц, Хеві Метал, Чорний Фрегат, Коргот з Варварії, Леді Смерть, Замок Трансільванії, Червона межа (через схожий візуальний стиль) чи інші подібні 18+ жорстокі мультики (сам Хелс тягне десь на 12+ чи заледь 16+, він доволі пом’якшений, порівняно зі згаданими раніш) — то й може сподобатись цей. Мені не надто сподобався, бо переборщили. Комусь іншому навпаки може сподобатись доволі відкрито прямолінійний сатиричний/пародійний гумор та особливий вигляд, який ніколи й ані з чим не можна буде сплутати.

Якихось прямих аналогів у мультфільму теж немає. Є часткові збіги багато з чим, але часткові. Не можна назвати щось, на що б він був дуже схожий без великої кількості обмовок.

Чи варто дивитись?
Скажімо, варто дати йому спробу. Важко вгадати, кому він сподобається, бо він такий один.

Додано через 8 хвилин 36 секунд:


Ваш часовий пояс: GMT + 2 Години

Нова тема   Відповісти