2Pac: Легенда / All Eyez on Me (2017) Remux 1080p Ukr/Eng | Sub Eng

Нові коментарі

Нова тема   Відповісти
Автор Повідомлення
staf777 
Попереджень: 1
Попереджень: 1 


З нами з: 16.11.16
Востаннє: 21.10.18
Повідомлень: 1642

2018-08-25 19:35  
2Pac: Легенда / All Eyez on Me (2017) Remux 1080p Ukr/Eng | Sub Eng



«Перший фиільм про Тупака Шакура»



Жанр: драма, біографічний, музичний
Країна: США



Кінокомпанія: Code Black Entertainment, Morgan Creek Productions, Program Pictures, Voltage Pictures
Режисер: Бенні Бум
Актори: Деметріус Шипп мол., Данай Джекесай Гуріра, Катерина Грехем, Енні Ілонзе, Домінік Сантана, Джамал Вулард, Кіт Робінсон, Лорен Коен

Сюжет:
Події кінострічки розпочинаються у 1995 році, коли у велику нью-йоркську в'язницю приходять журналісти. Привід - скандальний репер 2pac, який загримів за ґрати через звинувачення у зґвалтуванні. Артист розповідає їм про своє дитинство, про переїзд до Каліфорнії, про початок кар'єри та інші знакові моменти своєї біографії. Але все найважливіше відбудеться вже після того, як хлопця випустять на свободу…


Тривалість: 02:19:37
Якість: Remux 1080p

Відео:
кодек:
розмір кадру: 1920x1080
бітрейт: 19,9 Mб/с

Аудіо # 1:
мова: українська
переклад: професійний дубльований
кодек: 2.0
бітрейт: 192 кб/с

Аудіо # 2:
мова: англійська
переклад: оригінал
кодек: -HD MA 5.1
бітрейт: 3629 кб/с

Субтитри:
мова: англійська
тип: програмні (м'які)
формат: *.srt
Info
Код:
General
Unique ID                   : 116643435447333676193287261046324022068 (0x57C0B561337F030E40A1A833A5D74B34)
Complete name               : D:\KINOZAL\All Eyez on Me (2017) Remux 1080p [UKR_ENG] [Hurtom] .
Format                      :
Format version              : Version 4 / Version 2
File size                   : 23.1 GiB
Duration                    : 2 h 19 min
Overall bit rate mode       : Variable
Overall bit rate            : 23.7 Mb/s
Movie name                  : All Eyez on Me (2017) Remux 1080p [UKR_ENG] [Hurtom]
Encoded date                : UTC 2018-08-25 13:26:18
Writing application         : v24.0.0 ('Beyond The Pale') 64-bit
Writing library             : libebml v1.3.6 + v1.4.9
Cover                       : Yes
Attachments                 : cover.jpg

Video
ID                          : 1
Format                      : AVC
Format/Info                 : Advanced Video Codec
Format profile              : [email protected]
Format settings             : CABAC / 4 Ref Frames
Format settings, CABAC      : Yes
Format settings, ReFrames   : 4 frames
Codec ID                    : V_MPEG4/ISO/AVC
Duration                    : 2 h 19 min
Bit rate mode               : Variable
Bit rate                    : 19.9 Mb/s
Maximum bit rate            : 35.0 Mb/s
Width                       : 1 920 pixels
Height                      : 1 080 pixels
Display aspect ratio        : 16:9
Frame rate mode             : Constant
Frame rate                  : 23.976 (24000/1001) FPS
Color space                 : YUV
Chroma subsampling          : 4:2:0
Bit depth                   : 8 bits
Scan type                   : Progressive
Bits/(Pixel*Frame)          : 0.400
Stream size                 : 19.4 GiB (84%)
Title                       : All Eyez on Me (2017)
Language                    : English
Default                     : Yes
Forced                      : No

Audio #1
ID                          : 2
Format                      : AC-3
Format/Info                 : Audio Coding 3
Codec ID                    : A_AC3
Duration                    : 2 h 19 min
Bit rate mode               : Constant
Bit rate                    : 192 kb/s
Channel(s)                  : 2 channels
Channel positions           : Front: L R
Sampling rate               : 48.0 kHz
Frame rate                  : 31.250 FPS (1536 SPF)
Bit depth                   : 16 bits
Compression mode            : Lossy
Stream size                 : 192 MiB (1%)
Language                    : Ukrainian
Service kind                : Complete Main
Default                     : Yes
Forced                      : Yes

Audio #2
ID                          : 3
Format                      :
Format/Info                 : Digital Theater Systems
Format profile              : MA / Core
Codec ID                    : A_DTS
Duration                    : 2 h 19 min
Bit rate mode               : Variable / Constant
Bit rate                    : 3 629 kb/s / 1 509 kb/s
Channel(s)                  : 6 channels
Channel positions           : Front: L C R, Side: L R, LFE
Sampling rate               : 48.0 kHz
Frame rate                  : 93.750 FPS (512 SPF)
Bit depth                   : 24 bits
Compression mode            : Lossless / Lossy
Stream size                 : 3.54 GiB (15%)
Title                       : -HD MA, 6 ch, 3629 Kbps, Original
Language                    : English
Default                     : No
Forced                      : No

Text
ID                          : 4
Format                      : UTF-8
Codec ID                    : S_TEXT/UTF8
Codec ID/Info               : UTF-8 Plain Text
Duration                    : 2 h 19 min
Bit rate                    : 92 b/s
Count of elements           : 2898
Stream size                 : 94.5 KiB (0%)
Language                    : English
Default                     : No
Forced                      : No

Menu
00:00:00.000                : en:Chapter 01
00:08:11.240                : en:Chapter 02
00:18:13.258                : en:Chapter 03
00:26:49.899                : en:Chapter 04
00:35:10.691                : en:Chapter 05
00:44:50.104                : en:Chapter 06
00:52:41.533                : en:Chapter 07
01:01:27.934                : en:Chapter 08
01:09:20.489                : en:Chapter 09
01:19:04.656                : en:Chapter 10
01:27:41.547                : en:Chapter 11
01:35:07.410                : en:Chapter 12
01:44:51.952                : en:Chapter 13
01:52:30.994                : en:Chapter 14
02:03:28.484                : en:Chapter 15
02:14:28.977                : en:Chapter 16
Скріншоти




Подяка пану sergiyko.5 за доріжку.
За допомогу в створені реліза дякую пану 11FrYkT
Джерело: &
Особиста оцінка: 0 - не дивився


Золотий реліз (завантажене не впливає на рейтинг)
 Трекер:    Зареєстрований   

Завантажити / скачати фільм українською



відео для новачків



 Зареєстрований:   2018-08-25 19:40
 Розмір:   23.12 GB 
 Оцінка фільму:   6.6/10 (Голосів: 12)
   
Інші релізи
   2Pac: Легенда / All Eyez on Me (2017) 1080p Ukr/Eng | Sub Eng staf777  10 / 0   11 GB   2018-08-25 19:11 
   2Pac: Легенда / All Eyez on Me (2017) AVC Ukr/Eng | Sub Eng 11FrYkT  14 / 0   2.65 GB   2018-08-05 22:22 
   2Pac: Легенда / All Eyez on Me (2017) 720p Ukr/Eng | Sub Eng sergiyko.5  6 / 0   5.72 GB   2018-08-05 22:04 
   2Pac: Легенда / All Eyez on Me (2017) sergiyko.5  19 / 0   1.93 GB   2018-08-05 20:59 
bot 
робот


З нами з: 30.09.07
Востаннє: 26.05.05
Повідомлень: 19978

2018-08-25 19:40  
Тему перенесено з Анонси релізів до форуму Фільми в HD


staf777

Ваш часовий пояс: GMT + 2 Години

Нова тема   Відповісти