Формула 1. Сезон 2018. Етап 13. Гран-Прі Бельгії. Кваліфікація (25.08.2018) HDTV 1080i

Нові коментарі

Нова тема   Відповісти
Останній раз роздавалося drema911 (2020-10-27)
Автор Повідомлення
sergiyko.5 
VIP


З нами з: 25.02.16
Востаннє: 28.10.20
Повідомлень: 3638

2018-08-25 16:29  
Формула 1. Сезон 2018. Етап 13. Гран-Прі Бельгії. Кваліфікація (25.08.2018) HDTV 1080i


Формула 1. Сезон 2018. Етап 13. Гран-Прі Бельгії. Кваліфікація (25.08.2018) HDTV 1080i

Жанр: Перегони Формули 1
Країна: Бельгія
Телеканал: Перший автомобільний HD
Коментатор: Максим Подзігун

Опис:
Кваліфікація тринадцятого етапу Гран-Прі Бельгії 2018 року.


Тривалість: 01:14:28
Якість: HDTV

Відео: кодек: розмір кадру: 1920 х 1080 бітрейт: 5500 кб/с
Аудіо: мова: українська кодек: 2.0 бітрейт: 128 кб/с
Про файл:

General
Unique ID : 258957332093097380678986446977552039438 (0xC2D15E36898A1A847AF8CC47C8173E0E)
Complete name : D:\Torrents\SPORT\Formula 1\F1.2018.Qualifying\F1.2018.13.Belgian.Qualifying.1080i.HDTV.Ukr.
Format :
Format version : Version 4 / Version 2
File size : 2.91 GiB
Duration : 1 h 14 min
Overall bit rate : 5 589 kb/s
Encoded date : UTC 2018-08-25 14:18:30
Writing application : v25.0.0 ('Prog Noir') 64-bit
Writing library : libebml v1.3.6 + v1.4.9

Video
ID : 1
Format : AVC
Format/Info : Advanced Video Codec
Format profile : [email protected]
Format settings : CABAC / 4 Ref Frames
Format settings, CABAC : Yes
Format settings, ReFrames : 4 frames
Codec ID : V_MPEG4/ISO/AVC
Duration : 1 h 14 min
Bit rate : 5 461 kb/s
Width : 1 920 pixels
Height : 1 080 pixels
Display aspect ratio : 16:9
Frame rate mode : Constant
Frame rate : 25.000 FPS
Standard : Component
Color space : YUV
Chroma subsampling : 4:2:0
Bit depth : 8 bits
Scan type : MBAFF
Scan type, store method : Interleaved fields
Scan order : Top Field First
Bits/(Pixel*Frame) : 0.105
Stream size : 2.84 GiB (98%)
Language : English
Default : Yes
Forced : No
Color range : Limited
Color primaries : BT.709
Transfer characteristics : BT.709
Matrix coefficients : BT.709

Audio
ID : 2
Format :
Format/Info : Advanced Audio Codec
Format profile : LC
Codec ID : A_AAC-2
Duration : 1 h 14 min
Bit rate : 125 kb/s
Channel(s) : 2 channels
Channel positions : Front: L R
Sampling rate : 48.0 kHz
Frame rate : 46.875 FPS (1024 SPF)
Compression mode : Lossy
Stream size : 66.8 MiB (2%)
Language : Ukrainian
Default : Yes
Forced : No
Скріншоти:


Автор запису: sergiyko


 Трекер:    Зареєстрований   

Завантажити / скачати торрент



відео для новачків



 Зареєстрований:   2018-08-25 16:29
 Розмір:   2.91 GB 
 Оцінка:   9.4/10 (Голосів: 15)
   
Umbrella.Corps 
Свій


З нами з: 09.04.17
Востаннє: 24.10.20
Повідомлень: 61

2018-08-26 17:04  
Дякую. Чекаєм гонку.
Ваш часовий пояс: GMT + 2 Години

Нова тема   Відповісти