Тобі кінець! (Ти - наступний) / You're Next (2011) 720p 2xUkr/Eng | Sub Eng

Нові коментарі

Нова тема   Відповісти
Автор Повідомлення
Anonymous 







2018-08-25 16:25  
Тобі кінець! (Ти - наступний) / You're Next (2011) 720p 2xUkr/Eng | Sub Eng

Тобі кінець! (Ти - наступний) / You're Next (2011) 720p 2xUkr/Eng | Sub Eng


Жанр: жахи, трилер
Країна: США



Кінокомпанія: HanWay Films, Snoot Entertainment
Режисер: Адам Вінґард
Актори: Ніколас Туччі, Венді Ґлен, ЕйДжей Боввен, Джо Сванберґ, Барбара Кремптон, Роб Моран

Сюжет:
Кріспіан Девідсон і його подруга Ерін відправляються на сімейну вечірку в заміський маєток, що належить батькам хлопця. Однак насолодитися спілкуванням з родичами не вдається нікому. У будинок вриваються декілька маніяків у звіриних масках, мета яких - винищити всіх присутніх. Але лиходії явно не розраховували на те, що Ерін володіє не тільки інстинктом самозбереження, а й досвідом виживання в екстремальних умовах...


Тривалість: 01:36:34
Якість: 720p
Відео:
кодек:
розмір кадру: 1280х534
бітрейт: 4868 кб/с

Аудіо # 1:
мова: українська
переклад: професійний дубльований | AAA-Sound
кодек: 5.1
бітрейт: 384 кб/с

Аудіо # 2:
мова: українська
переклад: багатоголосий закадровий
кодек: 2.0
бітрейт: 192 кб/с

Аудіо # 3:
мова: англійська
переклад: оригінал
кодек: 5.1
бітрейт: 1509 кб/с

Субтитри # 1-3:
мова: англійська (повні, SDH, SDH-COLORED)
тип: програмні (м'які)
формат: *.srt
Info
General
Unique ID : 192855547303816018800989680975668344191 (0x9116A099F7BBF0749170EA63DB6C757F)
Format :
Format version : Version 4 / Version 2
File size : 4.78 GiB
Duration : 1 h 36 min
Overall bit rate : 7 095 kb/s
Encoded date : UTC 2018-08-25 13:19:08
Writing application : v6.1.0 ('Old Devil') built on Mar 4 2013 09:10:42
Writing library : libebml v1.3.0 + v1.4.0

Video
ID : 1
Format : AVC
Format/Info : Advanced Video Codec
Format profile : [email protected]
Format settings : CABAC / 12 Ref Frames
Format settings, CABAC : Yes
Format settings, ReFrames : 12 frames
Codec ID : V_MPEG4/ISO/AVC
Duration : 1 h 36 min
Bit rate : 4 868 kb/s
Width : 1 280 pixels
Height : 534 pixels
Display aspect ratio : 2.40:1
Frame rate mode : Constant
Frame rate : 23.976 (24000/1001) FPS
Color space : YUV
Chroma subsampling : 4:2:0
Bit depth : 8 bits
Scan type : Progressive
Bits/(Pixel*Frame) : 0.297
Stream size : 3.28 GiB (69%)
Writing library : core 140 r2377 1ca7bb9
Encoding settings : cabac=1 / ref=12 / deblock=1:-3:-3 / analyse=0x3:0x133 / me=umh / subme=10 / psy=1 / psy_rd=1.05:0.00 / mixed_ref=1 / me_range=48 / chroma_me=1 / trellis=2 / 8x8dct=1 / cqm=0 / deadzone=21,11 / fast_pskip=0 / chroma_qp_offset=-2 / threads=6 / lookahead_threads=1 / sliced_threads=0 / nr=0 / decimate=0 / interlaced=0 / bluray_compat=0 / constrained_intra=0 / bframes=9 / b_pyramid=2 / b_adapt=2 / b_bias=0 / direct=3 / weightb=1 / open_gop=0 / weightp=2 / keyint=250 / keyint_min=23 / scenecut=40 / intra_refresh=0 / rc_lookahead=100 / rc=crf / mbtree=0 / crf=15.0 / qcomp=0.78 / qpmin=0 / qpmax=69 / qpstep=4 / vbv_maxrate=50000 / vbv_bufsize=62500 / crf_max=0.0 / nal_hrd=none / filler=0 / ip_ratio=1.30 / pb_ratio=1.20 / aq=1:0.72
Language : English
Default : Yes
Forced : No

Audio #1
ID : 2
Format : AC-3
Format/Info : Audio Coding 3
Codec ID : A_AC3
Duration : 1 h 36 min
Bit rate mode : Constant
Bit rate : 384 kb/s
Channel(s) : 6 channels
Channel positions : Front: L C R, Side: L R, LFE
Sampling rate : 48.0 kHz
Frame rate : 31.250 FPS (1536 SPF)
Bit depth : 16 bits
Compression mode : Lossy
Stream size : 265 MiB (5%)
Title : UKR (AAA-Sound)
Language : Ukrainian
Service kind : Complete Main
Default : Yes
Forced : Yes

Audio #2
ID : 3
Format : AC-3
Format/Info : Audio Coding 3
Codec ID : A_AC3
Duration : 1 h 36 min
Bit rate mode : Constant
Bit rate : 192 kb/s
Channel(s) : 2 channels
Channel positions : Front: L R
Sampling rate : 48.0 kHz
Frame rate : 31.250 FPS (1536 SPF)
Bit depth : 16 bits
Compression mode : Lossy
Stream size : 132 MiB (3%)
Title : UKR (NLO-TV)
Language : Ukrainian
Service kind : Complete Main
Default : No
Forced : No

Audio #3
ID : 4
Format :
Format/Info : Digital Theater Systems
Codec ID : A_DTS
Duration : 1 h 36 min
Bit rate mode : Constant
Bit rate : 1 509 kb/s
Channel(s) : 6 channels
Channel positions : Front: L C R, Side: L R, LFE
Sampling rate : 48.0 kHz
Frame rate : 93.750 FPS (512 SPF)
Bit depth : 24 bits
Compression mode : Lossy
Delay relative to video : 11 ms
Stream size : 1.02 GiB (21%)
Language : English
Default : No
Forced : No

Text #1
ID : 5
Format : UTF-8
Codec ID : S_TEXT/UTF8
Codec ID/Info : UTF-8 Plain Text
Language : English
Default : No
Forced : No

Text #2
ID : 6
Format : UTF-8
Codec ID : S_TEXT/UTF8
Codec ID/Info : UTF-8 Plain Text
Title : SDH
Language : English
Default : No
Forced : No

Text #3
ID : 7
Format : UTF-8
Codec ID : S_TEXT/UTF8
Codec ID/Info : UTF-8 Plain Text
Title : SDH-COLORED
Language : English
Default : No
Forced : No

Menu
00:00:00.000 : en:00:00:00.000
00:04:26.016 : en:00:04:26.016
00:15:08.366 : en:00:15:08.366
00:22:49.868 : en:00:22:49.868
00:33:38.850 : en:00:33:38.850
00:44:59.822 : en:00:44:59.822
00:54:07.995 : en:00:54:07.995
01:01:25.682 : en:01:01:25.682
01:11:12.018 : en:01:11:12.018
01:17:46.078 : en:01:17:46.078
01:24:08.126 : en:01:24:08.126
01:31:24.979 : en:01:31:24.979
Скріншоти






За першу доріжку дякую пану karvai0
За другу доріжку дякую п.: РОМЕО, Arsenfpu
Особиста подяка пану denixx за надану матеріальну допомогу на підтримку цього і майбутніх релізів.
Джерело:


 Трекер:    Зареєстрований   

Завантажити / скачати фільм українською



відео для новачків



 Зареєстрований:   2018-08-25 16:25
 Розмір:   4.78 GB 
 Оцінка фільму:   7/10 (Голосів: 3)
   
Інші релізи
   Тобі кінець! (Ти - наступний) / You're Next (2011) 2xUkr/Eng Arsenfpu  1 / 0   2.09 GB   2018-04-15 23:04 
   Тобі кінець! / You're Next (2011) AngryBirdsUA  4 / 0   1.45 GB   2016-01-10 13:14 
Ваш часовий пояс: GMT + 2 Години

Нова тема   Відповісти