Вовк / Wolf (1994) 720p Ukr/Eng | Sub Eng

Нові коментарі

Нова тема   Відповісти
Автор Повідомлення
Anonymous 







2018-08-25 16:09  
Вовк / Wolf (1994) 720p Ukr/Eng | Sub Eng

Вовк / Wolf (1994) 720p Ukr/Eng | Sub Eng

[spoilerАльтернативний постер:]
[/spoiler]


Жанр: трилер, жахи, драма
Країна: США



Кінокомпанія: Columbia Pictures Corporation
Режисер: Майк Ніколс / Mike Nichols
Актори: Джек Ніколсон / Jack Nicholson, Мішель Пфайффер / Michelle Pfeiffer, Джеймс Спайдер / James Spader, Кейт Нелліган / Kate Nelligan, Річард Дженкінс / Richard Jenkins, Крістофер Пламмер / Christopher Plummer, Айлін Еткінс / Eileen Atkins, Девід Хайд Пірс / David Hyde Pierce, Ом Пурі / Om Puri, Рон Ріфкін / Ron Rifkin

Сюжет:
Вовчий укус повністю змінює життя Вілла Ренделла, головного редактора великого видавництва. Вілл, який мало не втратив роботу через молодого нахабного колегу, починає поводитись на роботі, як хижак, жорстко вирішуючи конфлікт на свою користь. Він також заводить роман з дочкою свого боса, Лорою Олден. Ночами ж з Віллом відбуваються ще дивніші зміни: він поступово перетворюється на перевертня... Романтико-містичний трилер Ніколса чудово працює відразу на кількох рівнях: це і данина класичним сюжетам про перевертнів, і пародія на типовий сюжет про «яппі в небезпеці», і історія кохання у виконанні магнетичного дуету Ніколсона та Пфайффер.


Тривалість: 02:05:20
Якість: 720p
Відео:
кодек:
розмір кадру: 1280х694
бітрейт: 6482 кб/с

Аудіо # 1:
мова: українська
переклад: багатоголосий закадровий
кодек: 5.1
бітрейт: 384 кб/с

Аудіо # 2:
мова: англійська
переклад: оригінал
кодек: 5.1
бітрейт: 1509 кб/с

Субтитри:
мова: англійська
тип: програмні (м'які)
формат: *.srt
Info
General
Unique ID : 223592388633265072782705146361189186947 (0xA83653E19072D344B9CA0CFF66CF3D83)
Format :
Format version : Version 4 / Version 2
File size : 7.33 GiB
Duration : 2 h 5 min
Overall bit rate : 8 377 kb/s
Encoded date : UTC 2018-08-25 13:01:58
Writing application : v6.1.0 ('Old Devil') built on Mar 4 2013 09:10:42
Writing library : libebml v1.3.0 + v1.4.0

Video
ID : 1
Format : AVC
Format/Info : Advanced Video Codec
Format profile : [email protected]
Format settings : CABAC / 5 Ref Frames
Format settings, CABAC : Yes
Format settings, ReFrames : 5 frames
Codec ID : V_MPEG4/ISO/AVC
Duration : 2 h 5 min
Bit rate : 6 482 kb/s
Width : 1 280 pixels
Height : 694 pixels
Display aspect ratio : 1.85:1
Frame rate mode : Constant
Frame rate : 23.976 FPS
Color space : YUV
Chroma subsampling : 4:2:0
Bit depth : 8 bits
Scan type : Progressive
Bits/(Pixel*Frame) : 0.304
Stream size : 5.53 GiB (75%)
Writing library : core 79 r1354M 636f98f
Encoding settings : cabac=1 / ref=5 / deblock=1:-3:-3 / analyse=0x3:0x113 / me=umh / subme=9 / psy=1 / psy_rd=1.3:0.1 / mixed_ref=1 / me_range=32 / chroma_me=1 / trellis=2 / 8x8dct=1 / cqm=0 / deadzone=21,11 / chroma_qp_offset=-3 / threads=6 / nr=0 / decimate=1 / mbaff=0 / constrained_intra=0 / bframes=5 / b_pyramid=0 / b_adapt=2 / b_bias=0 / direct=3 / wpredb=1 / wpredp=2 / keyint=250 / keyint_min=25 / scenecut=40 / rc_lookahead=0 / rc=2pass / mbtree=0 / bitrate=6482 / ratetol=1.0 / qcomp=0.60 / qpmin=10 / qpmax=51 / qpstep=4 / cplxblur=20.0 / qblur=0.5 / vbv_maxrate=50000 / vbv_bufsize=50000 / ip_ratio=1.40 / pb_ratio=1.30 / aq=1:1.00
Language : English
Default : Yes
Forced : No

Audio #1
ID : 2
Format : AC-3
Format/Info : Audio Coding 3
Codec ID : A_AC3
Duration : 2 h 5 min
Bit rate mode : Constant
Bit rate : 384 kb/s
Channel(s) : 6 channels
Channel positions : Front: L C R, Side: L R, LFE
Sampling rate : 48.0 kHz
Frame rate : 31.250 FPS (1536 SPF)
Bit depth : 16 bits
Compression mode : Lossy
Stream size : 344 MiB (5%)
Title : UKR (Inter)
Language : Ukrainian
Service kind : Complete Main
Default : Yes
Forced : Yes

Audio #2
ID : 3
Format :
Format/Info : Digital Theater Systems
Codec ID : A_DTS
Duration : 2 h 5 min
Bit rate mode : Constant
Bit rate : 1 509 kb/s
Channel(s) : 6 channels
Channel positions : Front: L C R, Side: L R, LFE
Sampling rate : 48.0 kHz
Frame rate : 93.750 FPS (512 SPF)
Bit depth : 24 bits
Compression mode : Lossy
Stream size : 1.32 GiB (18%)
Language : English
Default : No
Forced : No

Text #1
ID : 4
Format : UTF-8
Codec ID : S_TEXT/UTF8
Codec ID/Info : UTF-8 Plain Text
Language : English
Default : No
Forced : No

Text #2
ID : 5
Format : UTF-8
Codec ID : S_TEXT/UTF8
Codec ID/Info : UTF-8 Plain Text
Title : SDH
Language : English
Default : No
Forced : No

Menu
00:00:00.000 : :01
00:10:16.491 : :02
00:16:22.231 : :03
00:25:21.854 : :04
00:36:04.329 : :05
00:46:52.893 : :06
00:49:16.745 : :07
00:57:28.779 : :08
01:05:15.995 : :09
01:08:02.078 : :10
01:17:03.285 : :11
01:26:06.661 : :12
01:40:57.677 : :13
01:44:42.318 : :14
01:52:01.048 : :15
01:54:29.863 : :16
Скріншоти









За українську доріжку подяка п.: SweetN, MAKAPOHHIK, _oles
За український постер подяка п. hellforces
Особиста подяка пану denixx за надану матеріальну допомогу на підтримку цього і майбутніх релізів.
Джерело:


Срібний реліз (на рейтинг впливає 50% завантаженого)
 Трекер:    Зареєстрований   

Завантажити / скачати фільм українською



відео для новачків



 Зареєстрований:   2018-08-25 16:09
 Розмір:   7.33 GB 
 Оцінка фільму:   10/10 (Голосів: 2)
   
Інші релізи
   Вовк / Wolf (1994) Ukr/Eng _oles  2 / 0   2.18 GB   2010-01-09 13:00 
Ваш часовий пояс: GMT + 2 Години

Нова тема   Відповісти