Білий шквал / White Squall (1996) 720p Ukr/Eng | Sub Eng

Нові коментарі

Нова тема   Відповісти
Останній раз роздавалося drop_plz (2018-12-18)
Автор Повідомлення
Anonymous 







2018-08-25 14:53  
Білий шквал / White Squall (1996) 720p Ukr/Eng | Sub Eng

Білий шквал / White Squall (1996) 720p Ukr/Eng | Sub Eng


Жанр: пригодницький, драма
Країна: США



Кінокомпанія: Hollywood Pictures, Largo Entertainment
Режисер: Рідли Скотт
Актори: Джефф Бріджес, Джон Севідж, Райан Філіпп, Скотт Вулф, Бальтазар Ґетті, Джеремі Сісто, Джейсон Марсден, Ерік Майкл Коул

Сюжет:
Фільм заснований на реальних подіях. 1961 рік. Чак Ґіґ та інші підлітки відправляються в плавання на навчальній бригантині «Альбатрос» під керівництвом капітана Крістофера Шелдона. Хлопці пізнають дружбу, взаємодопомогу, долають різні труднощі. Але по дорозі додому вони потрапляють в білий шквал, в якому гинуть дружина Шелдона - доктор на кораблі, двоє учнів і кок. Решта учасників плавання забралися в рятувальні шлюпки, а через деякий час їх врятувало випадкове судно. Проти капітана порушено кримінальну справу з метою позбавити його ліцензії, але його учні, які стали вже однією командою, заступаються за нього.


Тривалість: 02:08:57
Якість: 720p
Відео:
кодек:
розмір кадру: 1280х548
бітрейт: 5 934 кб/с

Аудіо # 1:
мова: українська
переклад: двоголосий закадровий ,
кодек: 2.0
бітрейт: 192 кб/с

Аудіо # 2:
мова: англійська
переклад: оригінал
кодек: 5.1
бітрейт: 640 кб/с

Субтитри:
мова: англійська
тип: програмні (м'які)
формат: *.srt
Info
General
Unique ID : 175633888948643839339941911540853600776 (0x8421DB49F9E9A619AA8981901D377208)
Format :
Format version : Version 4 / Version 2
File size : 6.22 GiB
Duration : 2 h 8 min
Overall bit rate : 6 904 kb/s
Encoded date : UTC 2018-08-25 12:46:20
Writing application : v6.1.0 ('Old Devil') built on Mar 4 2013 09:10:42
Writing library : libebml v1.3.0 + v1.4.0

Video
ID : 1
Format : AVC
Format/Info : Advanced Video Codec
Format profile : [email protected]
Format settings : CABAC / 11 Ref Frames
Format settings, CABAC : Yes
Format settings, ReFrames : 11 frames
Codec ID : V_MPEG4/ISO/AVC
Duration : 2 h 8 min
Bit rate : 5 934 kb/s
Width : 1 280 pixels
Height : 548 pixels
Display aspect ratio : 2.35:1
Frame rate mode : Constant
Frame rate : 23.976 (24000/1001) FPS
Color space : YUV
Chroma subsampling : 4:2:0
Bit depth : 8 bits
Scan type : Progressive
Bits/(Pixel*Frame) : 0.353
Stream size : 5.35 GiB (86%)
Writing library : core 124 r2197 69a0443
Encoding settings : cabac=1 / ref=11 / deblock=1:-3:-3 / analyse=0x3:0x113 / me=umh / subme=11 / psy=1 / psy_rd=0.90:0.00 / mixed_ref=1 / me_range=48 / chroma_me=1 / trellis=2 / 8x8dct=1 / cqm=0 / deadzone=21,11 / fast_pskip=1 / chroma_qp_offset=-2 / threads=12 / sliced_threads=0 / nr=0 / decimate=1 / interlaced=0 / bluray_compat=0 / constrained_intra=0 / bframes=12 / b_pyramid=2 / b_adapt=2 / b_bias=0 / direct=3 / weightb=1 / open_gop=0 / weightp=2 / keyint=240 / keyint_min=24 / scenecut=40 / intra_refresh=0 / rc_lookahead=40 / rc=crf / mbtree=0 / crf=17.6 / qcomp=0.70 / qpmin=0 / qpmax=69 / qpstep=4 / vbv_maxrate=50000 / vbv_bufsize=50000 / crf_max=0.0 / nal_hrd=none / ip_ratio=1.35 / pb_ratio=1.25 / aq=1:0.90
Language : English
Default : Yes
Forced : Yes
Color range : Limited
Color primaries : BT.709
Transfer characteristics : BT.709
Matrix coefficients : BT.709

Audio #1
ID : 2
Format : AC-3
Format/Info : Audio Coding 3
Codec ID : A_AC3
Duration : 2 h 8 min
Bit rate mode : Constant
Bit rate : 192 kb/s
Channel(s) : 2 channels
Channel positions : Front: L R
Sampling rate : 48.0 kHz
Frame rate : 31.250 FPS (1536 SPF)
Bit depth : 16 bits
Compression mode : Lossy
Stream size : 177 MiB (3%)
Title : UKR (2+2, 1+1)
Language : Ukrainian
Service kind : Complete Main
Default : Yes
Forced : Yes

Audio #2
ID : 3
Format : AC-3
Format/Info : Audio Coding 3
Codec ID : A_AC3
Duration : 2 h 8 min
Bit rate mode : Constant
Bit rate : 640 kb/s
Channel(s) : 6 channels
Channel positions : Front: L C R, Side: L R, LFE
Sampling rate : 48.0 kHz
Frame rate : 31.250 FPS (1536 SPF)
Bit depth : 16 bits
Compression mode : Lossy
Stream size : 590 MiB (9%)
Language : English
Service kind : Complete Main
Default : No
Forced : No

Text
ID : 4
Format : UTF-8
Codec ID : S_TEXT/UTF8
Codec ID/Info : UTF-8 Plain Text
Title : Full
Language : English
Default : No
Forced : No

Menu
00:00:00.000 : en:Program Start/Opening Credits
00:09:55.595 : en:Getting Acquainted
00:20:49.123 : en:See You on the Deck
00:33:26.171 : en:First Lesson
00:41:45.044 : en:Facing Fear
00:54:17.963 : en:All Stop on Engines
01:05:35.974 : en:Contributing to the Cause
01:17:04.870 : en:Jfk Speaks
01:29:37.998 : en:Caught Cheating
01:45:52.263 : en:Cruising Girls
01:51:59.588 : en:Party Poop
02:05:30.022 : en:Dolphins Off the Stern
Скріншоти









За українську доріжку подяка п.: Bohdan237, Arsenfpu
Особиста подяка пану denixx за надану матеріальну допомогу на підтримку цього і майбутніх релізів.
Джерело:


Срібний реліз (на рейтинг впливає 50% завантаженого)
 Трекер:    Зареєстрований   

Завантажити / скачати фільм українською



відео для новачків



 Зареєстрований:   2018-08-25 14:53
 Розмір:   6.22 GB 
 Оцінка фільму:   10/10 (Голосів: 3)
   
Інші релізи
   Білий шквал / White Squall (1996) Ukr/Eng Arsenfpu  2 / 0   2.04 GB   2017-07-29 16:24 
Ваш часовий пояс: GMT + 2 Години

Нова тема   Відповісти