Білі не вміють стрибати / White Men Can't Jump (1992) 720p 2хUkr/Eng | Sub Eng

Нові коментарі

Нова тема   Відповісти
Автор Повідомлення
Anonymous 







2018-08-25 15:39  
Білі не вміють стрибати / White Men Can't Jump (1992) 720p 2хUkr/Eng | Sub Eng

Білі не вміють стрибати / White Men Can't Jump (1992) 720p 2хUkr/Eng | Sub Eng


Жанр: комедія, драма, спорт
Країна: США



Кінокомпанія: Twentieth Century Fox Film Corporation
Режисер: Рон Шелтон / Ron Shelton
Актори: Веслі Снайпс / Wesley Snipes, Вуді Гарельсон / Woody Harrelson, Розі Перез / Rosie Perez, Тайра Феррелл / Tyra Ferrell, Сілк Козарт / Cylk Cozart, Кадім Гардісон / Kadeem Hardison, Ернест Гарден мол. / Ernest Harden Jr. та інші

Сюжет:
Дія фільму переносить нас на розжарений асфальт баскетбольних майданчиків Лос-Анджелеса. Йде гра — гра, на гроші. А там де гроші завжди знайдеться місце парочці шахраїв, готових обдурити довірливого лоха.
Біллі, шулер баскетболу, безсоромно користується загальноприйнятою думкою, що білий не може грати в баскетбол, не може стрибати. Все складається відмінно, до тих пір, поки не приходить час розплачуватися з боргами, які тянуться ще з університетських часів. Потрібно терміново зібрати кругленьку суму, а самому це проблематично.
До цієї проблеми приєднується ще одна, Сідні — чорношкірий шахрай. Зірка вуличного баскетболу, викрадач жіночих сердець.
Між двома гравцями зав'язується неабияка боротьба за звання кращого баскетболіста, ловеласа, найуспішливішого кидали. Боротьба йде до тих пір, поки вони не розуміють, що в парі можна заробити значно більше грошей, ніж поодинці.


Тривалість: 01:56:50
Якість: 720p
Відео:
кодек:
розмір кадру: 1280х694
бітрейт: 8546 кб/с

Аудіо # 1:
мова: українська
переклад: двоголосий закадровий
кодек: 2.0
бітрейт: 192 кб/с
примітка: на проміжку 01:09:13 - 01:10:31 немає озвучення, оскільки по ТБ транслювали врізану версію

Аудіо # 2:
мова: українська
переклад: багатоголосий закадровий
кодек: 2.0
бітрейт: 192 кб/с
примітка: на проміжку 01:09:13 - 01:10:31 немає озвучення, оскільки по ТБ транслювали врізану версію

Аудіо # 3:
мова: англійська
переклад: оригінал
кодек: 5.1
бітрейт: 1509 кб/с

Субтитри:
мова: англійська
тип: програмні (м'які)
формат: *.srt
Info
General
Unique ID : 215448827802491578619704720252024058732 (0xA215EF5543E8C36F8CEF0EBB9EF6F36C)
Format :
Format version : Version 4 / Version 2
File size : 8.52 GiB
Duration : 1 h 56 min
Overall bit rate : 10.4 Mb/s
Encoded date : UTC 2018-08-25 12:30:08
Writing application : v6.1.0 ('Old Devil') built on Mar 4 2013 09:10:42
Writing library : libebml v1.3.0 + v1.4.0

Video
ID : 1
Format : AVC
Format/Info : Advanced Video Codec
Format profile : [email protected]
Format settings : CABAC / 9 Ref Frames
Format settings, CABAC : Yes
Format settings, ReFrames : 9 frames
Codec ID : V_MPEG4/ISO/AVC
Duration : 1 h 56 min
Bit rate : 8 546 kb/s
Width : 1 280 pixels
Height : 694 pixels
Display aspect ratio : 1.85:1
Frame rate mode : Constant
Frame rate : 23.976 (24000/1001) FPS
Color space : YUV
Chroma subsampling : 4:2:0
Bit depth : 8 bits
Scan type : Progressive
Bits/(Pixel*Frame) : 0.401
Stream size : 6.80 GiB (80%)
Writing library : core 120 r2164+656 2ff844c
Encoding settings : cabac=1 / ref=9 / deblock=1:-3:-3 / analyse=0x3:0x133 / me=umh / subme=10 / psy=1 / fade_compensate=0.00 / psy_rd=1.00:0.00 / mixed_ref=1 / me_range=32 / chroma_me=1 / trellis=2 / 8x8dct=1 / cqm=0 / deadzone=21,11 / fast_pskip=0 / chroma_qp_offset=-2 / threads=3 / sliced_threads=0 / nr=0 / decimate=0 / interlaced=0 / bluray_compat=0 / constrained_intra=0 / fgo=0 / bframes=7 / b_pyramid=2 / b_adapt=2 / b_bias=0 / direct=3 / weightb=1 / open_gop=0 / weightp=2 / keyint=250 / keyint_min=23 / scenecut=40 / intra_refresh=0 / rc_lookahead=60 / rc=2pass / mbtree=1 / bitrate=8546 / ratetol=1.0 / qcomp=0.70 / qpmin=0 / qpmax=69 / qpstep=4 / cplxblur=20.0 / qblur=0.5 / ip_ratio=1.40 / aq=3:0.85
Language : English
Default : No
Forced : No

Audio #1
ID : 2
Format : AC-3
Format/Info : Audio Coding 3
Codec ID : A_AC3
Duration : 1 h 56 min
Bit rate mode : Constant
Bit rate : 192 kb/s
Channel(s) : 2 channels
Channel positions : Front: L R
Sampling rate : 48.0 kHz
Frame rate : 31.250 FPS (1536 SPF)
Bit depth : 16 bits
Compression mode : Lossy
Stream size : 160 MiB (2%)
Title : UKR (TET)
Language : Ukrainian
Service kind : Complete Main
Default : Yes
Forced : Yes

Audio #2
ID : 3
Format : AC-3
Format/Info : Audio Coding 3
Codec ID : A_AC3
Duration : 1 h 56 min
Bit rate mode : Constant
Bit rate : 192 kb/s
Channel(s) : 2 channels
Channel positions : Front: L R
Sampling rate : 48.0 kHz
Frame rate : 31.250 FPS (1536 SPF)
Bit depth : 16 bits
Compression mode : Lossy
Stream size : 160 MiB (2%)
Title : UKR (KINO)
Language : Ukrainian
Service kind : Complete Main
Default : No
Forced : No

Audio #3
ID : 4
Format :
Format/Info : Digital Theater Systems
Codec ID : A_DTS
Duration : 1 h 56 min
Bit rate mode : Constant
Bit rate : 1 509 kb/s
Channel(s) : 6 channels
Channel positions : Front: L C R, Side: L R, LFE
Sampling rate : 48.0 kHz
Frame rate : 93.750 FPS (512 SPF)
Bit depth : 24 bits
Compression mode : Lossy
Stream size : 1.23 GiB (14%)
Language : English
Default : No
Forced : No

Text
ID : 5
Format : UTF-8
Codec ID : S_TEXT/UTF8
Codec ID/Info : UTF-8 Plain Text
Language : English
Default : No
Forced : No

Menu
00:00:00.000 : :00:00:00.000
00:04:34.816 : :00:04:34.816
00:09:00.123 : :00:09:00.123
00:19:00.681 : :00:19:00.681
00:24:25.464 : :00:24:25.464
00:31:06.865 : :00:31:06.865
00:36:15.006 : :00:36:15.006
00:43:21.224 : :00:43:21.224
00:50:48.212 : :00:50:48.212
00:58:04.189 : :00:58:04.189
01:04:55.266 : :01:04:55.266
01:10:32.562 : :01:10:32.562
01:14:12.156 : :01:14:12.156
01:23:14.072 : :01:23:14.072
01:28:26.676 : :01:28:26.676
01:33:12.212 : :01:33:12.212
01:36:36.082 : :01:36:36.082
01:42:31.270 : :01:42:31.270
01:47:32.738 : :01:47:32.738
01:52:41.964 : :01:52:41.964
Скріншоти









Подяки:
- за першу доріжку п. POMEO та patriot2305;
- за другу доріжку спільноті
- за українізований постер п. Gelios
Особиста подяка пану denixx за надану матеріальну допомогу на підтримку цього і майбутніх релізів.
Джерело:


Срібний реліз (на рейтинг впливає 50% завантаженого)
 Трекер:    Зареєстрований   

Завантажити / скачати фільм українською



відео для новачків



 Зареєстрований:   2018-08-25 15:39
 Розмір:   8.52 GB 
 Оцінка фільму:   8.7/10 (Голосів: 7)
   
Інші релізи
HELLOHAOS 
Свій


З нами з: 13.02.09
Востаннє: 12.10.18
Повідомлень: 64

2018-08-26 09:46  
Надзвичайно класний фільм.
Ваш часовий пояс: GMT + 2 Години

Нова тема   Відповісти