Там, де серце / Where the Heart Is (2000) 1080p Ukr/Eng | Sub Eng

Нові коментарі

Нова тема   Відповісти
Автор Повідомлення
Anonymous 







2018-08-25 14:18  
Там, де серце / Where the Heart Is (2000) 1080p Ukr/Eng | Sub Eng

Там, де серце / Where the Heart Is (2000) 1080p Ukr/Eng | Sub Eng


Жанр: драма, комедія, мелодрама
Країна: США



Кінокомпанія: Twentieth Century Fox, Wind Dancer Productions
Режисер: Мет Вільямс
Актори: Наталі Портман, Ешлі Джадд, Стокард Ченінг, Джоан К'юсак, Джеймс Фрейн, Ділан Бруно, Кіт Девід

Сюжет:
17-річна вагітна дівчина Новалі їде з Теннессі до Каліфорнії разом зі своїм бойфрендом. Проте в маленькому оклахомському містечку Секвойя хлопець вирішує кинути подружку прямо в магазині. Грошей у Новалі немає, та й робити вона нічого не вміє. Дівчина знаходить оригінальний вихід: вона ховається в магазині і таємно живе тут до того часу, поки у неї не з'являється на світ дитина. Новалі дає дочці ім'я Америкус і вирішує ростити її в Секвойї, де так багато дивних, але милих і добрих людей...


Тривалість: 01:59:58
Якість: 1080p
Відео:
кодек:
розмір кадру: 1918х1080
бітрейт: 4995 кб/с

Аудіо # 1:
мова: українська
переклад: двоголосий закадровий
кодек: 2.0
бітрейт: 192 кб/с
примітка: запис старий з аналогового ТБ, з невеликими шумами

Аудіо # 2:
мова: англійська
переклад: оригінал
кодек: 5.1
бітрейт: 384 кб/с

Субтитри:
мова: англійська
тип: програмні (м'які)
формат: *.srt
Info
General
Unique ID : 171869508307329944401380780823542397611 (0x814CDCFE738CDCAFB9AC53197F2A7AAB)
Format :
Format version : Version 4 / Version 2
File size : 4.76 GiB
Duration : 1 h 59 min
Overall bit rate : 5 684 kb/s
Encoded date : UTC 2018-08-25 12:13:41
Writing application : v6.1.0 ('Old Devil') built on Mar 4 2013 09:10:42
Writing library : libebml v1.3.0 + v1.4.0

Video
ID : 1
Format : AVC
Format/Info : Advanced Video Codec
Format profile : [email protected]
Format settings : CABAC / 4 Ref Frames
Format settings, CABAC : Yes
Format settings, ReFrames : 4 frames
Codec ID : V_MPEG4/ISO/AVC
Duration : 1 h 59 min
Bit rate : 4 995 kb/s
Width : 1 918 pixels
Height : 1 080 pixels
Display aspect ratio : 16:9
Frame rate mode : Constant
Frame rate : 23.976 FPS
Color space : YUV
Chroma subsampling : 4:2:0
Bit depth : 8 bits
Scan type : Progressive
Bits/(Pixel*Frame) : 0.101
Stream size : 4.19 GiB (88%)
Language : English
Default : Yes
Forced : No
Color range : Limited
Color primaries : BT.709
Transfer characteristics : BT.709
Matrix coefficients : BT.709

Audio #1
ID : 2
Format : AC-3
Format/Info : Audio Coding 3
Codec ID : A_AC3
Duration : 1 h 59 min
Bit rate mode : Constant
Bit rate : 192 kb/s
Channel(s) : 2 channels
Channel positions : Front: L R
Sampling rate : 48.0 kHz
Frame rate : 31.250 FPS (1536 SPF)
Bit depth : 16 bits
Compression mode : Lossy
Stream size : 165 MiB (3%)
Title : UKR (Новий канал)
Language : Ukrainian
Service kind : Music and Effects
Default : Yes
Forced : Yes

Audio #2
ID : 3
Format : AC-3
Format/Info : Audio Coding 3
Codec ID : A_AC3
Duration : 1 h 59 min
Bit rate mode : Constant
Bit rate : 384 kb/s
Channel(s) : 6 channels
Channel positions : Front: L C R, Side: L R, LFE
Sampling rate : 48.0 kHz
Frame rate : 31.250 FPS (1536 SPF)
Bit depth : 16 bits
Compression mode : Lossy
Stream size : 330 MiB (7%)
Language : English
Service kind : Complete Main
Default : No
Forced : No

Text
ID : 4
Format : UTF-8
Codec ID : S_TEXT/UTF8
Codec ID/Info : UTF-8 Plain Text
Language : English
Default : No
Forced : No

Menu
00:00:00.000 : en:Going To California
00:04:30.000 : en:Shopping For Shoes
00:06:15.000 : en:Bad Luck
00:14:54.000 : en:Moving In
00:21:00.000 : en:A Sick Tree
00:25:43.000 : en:A Wal-Mart Baby
00:28:04.000 : en:A Big Celebrity
00:38:43.000 : en:The Welcome Woman
00:40:03.000 : en:Forney
00:50:40.000 : en:A Christmas Story
00:57:12.000 : en:Ruth Meyers
01:02:29.000 : en:A Tornado
01:09:29.000 : en:Sister's Estate
01:12:10.000 : en:Making An Enemy
01:16:48.000 : en:Back Home
01:20:36.000 : en:Bad News
01:29:52.000 : en:Love
01:42:54.000 : en:Rock Bottom
01:50:04.000 : en:Something Better
01:54:33.000 : en:End Titles
Скріншоти








Подяки:
- urij546724 - запис звуку
- MutuLI - синхронізація
- MasterYura - за опис
- Тирік - за постер
Особиста подяка пану denixx за надану матеріальну допомогу на підтримку цього і майбутніх релізів.
Джерело:


Срібний реліз (на рейтинг впливає 50% завантаженого)
 Трекер:    Зареєстрований   

Завантажити / скачати фільм українською



відео для новачків



 Зареєстрований:   2018-08-25 14:18
 Розмір:   4.76 GB 
 Оцінка фільму:   10/10 (Голосів: 2)
   
Інші релізи
   Там, де серце / Where the Heart Is (2000) Ukr/Eng | Sub Eng MutuLI  11 / 0   1.97 GB   2018-05-14 19:27 
Ваш часовий пояс: GMT + 2 Години

Нова тема   Відповісти