Стриптиз / Striptease (1996) AVC Ukr/Eng | Sub Eng

Нові коментарі

Нова тема   Відповісти
Автор Повідомлення
staf777 
Відео Гуртом - підтримка та поширення
Відео Гуртом - підтримка та поширення


З нами з: 16.11.16
Востаннє: 18.10.19
Повідомлень: 2986

2018-08-25 15:15  
Стриптиз / Striptease (1996) AVC Ukr/Eng | Sub Eng

Стриптиз / Striptease (1996) AVC Ukr/Eng | Sub Eng


Жанр: трилер, комедія, кримінальний, еротичний
Країна: США



Кінокомпанія: Castle Rock Entertainment
Режисер: Ендрю Бергман
Актори: Демі Мур, Арманд Ассанте, Вінг Реймс, Роберт Патрік, Пол Гілфойл, Берт Рейнолдс, Джеррі Грейсон, Роберт Стентон...

Сюжет:
Ерін Гран - жінка, яка танцює стриптиз, щоб розв'язати серйозну фінансову проблему. Але все ускладнюється, коли ласолюбний конгресмен втрачає через неї голову.
Гроші, шантаж, вбивство - у законодавця в руках багато способів отримати бажане, але проти Ерін він безсилий. Вона оголюється, щоб вижити. Але справжнє викриття загрожує політику ...


Тривалість: 01:57:10
Якість: AVC
Відео:
кодек:
розмір кадру: 1024x576
бітрейт: 2382 кб/с

Аудіо # 1:
мова: українська
переклад: двоголосий закадровий
кодек: 2.0
бітрейт: 192 кб/с

Аудіо # 2:
мова: англійська
переклад: оригінал
кодек: 5.1
бітрейт: 448 кб/с

Джерело озвучення:


Субтитри:
мова: англійська
тип: програмні (м'які)
формат: *.srt
Скріншоти



MI
General
Unique ID : 219617934540232059157818796484723165380 (0xA538E02A4E8BE3967D31C61B4E7748C4)
Complete name : D:\KINOZAL\Striptease (1996) AVC [UKR_ENG] [Hurtom].
Format :
Format version : Version 4 / Version 2
File size : 2.42 GiB
Duration : 1 h 57 min
Overall bit rate : 2 958 kb/s
Movie name : Striptease (1996) AVC [UKR_ENG] [Hurtom]
Encoded date : UTC 2018-08-25 11:50:04
Writing application : v24.0.0 ('Beyond The Pale') 64-bit
Writing library : libebml v1.3.6 + v1.4.9
Cover : Yes
Attachments : cover.jpg

Video
ID : 1
Format : AVC
Format/Info : Advanced Video Codec
Format profile : [email protected]
Format settings : CABAC / 10 Ref Frames
Format settings, CABAC : Yes
Format settings, ReFrames : 10 frames
Codec ID : V_MPEG4/ISO/AVC
Duration : 1 h 57 min
Bit rate : 2 382 kb/s
Width : 1 024 pixels
Height : 576 pixels
Display aspect ratio : 16:9
Frame rate mode : Constant
Frame rate : 23.976 (24000/1001) FPS
Color space : YUV
Chroma subsampling : 4:2:0
Bit depth : 8 bits
Scan type : Progressive
Bits/(Pixel*Frame) : 0.168
Stream size : 1.95 GiB (80%)
Title : Rip by 0ptimus
Writing library : core 133 r2334 a3ac64b
Encoding settings : cabac=1 / ref=10 / deblock=1:-2:-1 / analyse=0x3:0x113 / me=umh / subme=11 / psy=1 / psy_rd=1.00:0.20 / mixed_ref=1 / me_range=48 / chroma_me=1 / trellis=2 / 8x8dct=1 / cqm=0 / deadzone=21,11 / fast_pskip=0 / chroma_qp_offset=-3 / threads=3 / lookahead_threads=1 / sliced_threads=0 / nr=0 / decimate=0 / interlaced=0 / bluray_compat=0 / constrained_intra=0 / bframes=11 / b_pyramid=2 / b_adapt=2 / b_bias=0 / direct=3 / weightb=1 / open_gop=0 / weightp=2 / keyint=240 / keyint_min=23 / scenecut=40 / intra_refresh=0 / rc_lookahead=40 / rc=2pass / mbtree=0 / bitrate=2382 / ratetol=1.0 / qcomp=0.60 / qpmin=0 / qpmax=69 / qpstep=4 / cplxblur=20.0 / qblur=0.5 / vbv_maxrate=50000 / vbv_bufsize=50000 / nal_hrd=none / ip_ratio=1.40 / pb_ratio=1.30 / aq=1:1.00
Language : English
Default : Yes
Forced : Yes

Audio #1
ID : 2
Format : AC-3
Format/Info : Audio Coding 3
Codec ID : A_AC3
Duration : 1 h 57 min
Bit rate mode : Constant
Bit rate : 192 kb/s
Channel(s) : 2 channels
Channel positions : Front: L R
Sampling rate : 48.0 kHz
Frame rate : 31.250 FPS (1536 SPF)
Bit depth : 16 bits
Compression mode : Lossy
Stream size : 161 MiB (6%)
Title : [UA-DVO] 2.0 @ 192 kbps
Language : Ukrainian
Service kind : Complete Main
Default : Yes
Forced : Yes

Audio #2
ID : 3
Format : AC-3
Format/Info : Audio Coding 3
Codec ID : A_AC3
Duration : 1 h 57 min
Bit rate mode : Constant
Bit rate : 384 kb/s
Channel(s) : 6 channels
Channel positions : Front: L C R, Side: L R, LFE
Sampling rate : 48.0 kHz
Frame rate : 31.250 FPS (1536 SPF)
Bit depth : 16 bits
Compression mode : Lossy
Stream size : 322 MiB (13%)
Title : 5.1 @ 384 kbps
Language : English
Service kind : Complete Main
Default : No
Forced : No

Text
ID : 4
Format : UTF-8
Codec ID : S_TEXT/UTF8
Codec ID/Info : UTF-8 Plain Text
Duration : 40 min 40 s
Bit rate : 73 b/s
Count of elements : 646
Stream size : 21.9 KiB (0%)
Language : English
Default : No
Forced : No

Menu
00:00:00.000 : en:Lost Custody
00:01:42.978 : en:Now Appearing (Credits)
00:04:15.672 : en:Backstage at the Eager Beaver
00:07:23.652 : en:Money Can't Buy It
00:09:57.138 : en:Rescuing an Angel
00:12:02.722 : en:Tracking Down Darrell
00:16:40.249 : en:Cold
00:19:28.250 : en:Food Ideas; Worshipper's Promise
00:25:19.643 : en:The Old Dilbeck Charm
00:27:59.553 : en:A Floater; Beach Reunion
00:30:28.243 : en:Putting the Squeeze On
00:35:29.377 : en:Al Questions Erin
00:39:47.844 : en:The Flesh Farm
00:43:05.041 : en:The Angel Rehearses
00:47:02.194 : en:Good and Mediocre News
00:50:10.674 : en:Taking Custody...and a Souvenir
00:54:04.074 : en:Policy Meeting
00:55:57.020 : en:Little Bird
00:59:45.874 : en:Vaseline and Family Values
01:02:59.025 : en:A Tiff With My Ex
01:07:27.585 : en:"Do You Like Dancing?"
01:09:52.855 : en:Whatever It Takes
01:12:35.893 : en:Dilbeck Meets His Angel
01:16:43.307 : en:If I Was Your Girlfriend
01:19:47.741 : en:A Word of Advice
01:22:13.470 : en:Another Dead Snake
01:25:37.424 : en:News Conference; Wolf Morphine
01:28:35.560 : en:Posion Revealed
01:33:15.340 : en:Stoned but Not Confused
01:37:00.148 : en:Time for a Little Drive
01:40:48.417 : en:"This Girl is Nuts"
01:43:15.564 : en:In for a Treat
01:46:26.255 : en:A Strong Homicidal Urge
01:48:54.987 : en:Black, No Sugar
01:52:08.889 : en:End Credits
За звукозапис з ТБ висловлюю подяку пану Soyer
За готову звукову доріжку дякую панам _oles, igrik09
За українізований постер дякую пану somnambula
Джерело: &
Особиста оцінка: 0 - не дивився


Срібний реліз (на рейтинг впливає 50% завантаженого)
 Трекер:    Зареєстрований   

Завантажити / скачати фільм українською



відео для новачків



 Зареєстрований:   2018-08-25 15:15
 Розмір:   2.42 GB 
 Оцінка фільму:   7.9/10 (Голосів: 17)
   
Інші релізи
   Стриптиз / Striptease (1996) 720p Ukr/Eng | Sub Eng drop_plz  2 / 0   5.92 GB   2018-06-29 09:04 
   Стриптиз / Striptease (1996) Ukr/Eng | Sub Eng igrik09  3 / 0   2.03 GB   2012-05-07 21:46 
0mage0 
VIP


З нами з: 06.10.15
Востаннє: 18.10.19
Повідомлень: 526

2018-09-01 22:27  
Незалежно пишеться разом. Цікаво, що роздача створена на наступний день після Дня Незалежності України, тобто слово на слуху, ви ж не святкуєте День "Не залежності".
igor911 
Модератор відео


З нами з: 18.01.08
Востаннє: 18.10.19
Повідомлень: 13537

2018-09-02 00:14  
0mage0, постер українізувався ще бо-зна коли, мінімум 7 років тому.
RomahaDj 
Частий відвідувач


З нами з: 17.12.12
Востаннє: 18.10.19
Повідомлень: 48

2018-09-03 19:24  
igor911
В даному випадку - так. Але є й інші випадки. Все буде залежати від контексту, в якому це слово зустрічається. Найчастіше прислівники, а незалежно - це і є прислівник, пишуться разом. Однак, бувають пропозиції, де написання буде роздільним. Це випадки, коли в реченні присутні протиставлення з союзами "а" і "але", Або слова "зовсім", "аж ніяк" і "далеко".

Наприклад, Незалежно від обставин, Лариса прийшла на зустріч. Ні в якому разі не залежно від обставин Лариса прийшла на зустріч.

volodymyr_sav 
VIP


З нами з: 07.10.13
Востаннє: 18.10.19
Повідомлень: 1614

2018-10-17 07:07  
Все ж Діна Спайбі, та що на першому скріні ліворуч - отримає від мене премію за кращий танець, хоча Демі впоралась із цим завданням точно не гірше.
Практично весь час перегляду, я думав, що цей фільм - якісний кримінальний трилер і гра акторів це підтверджувала, хоча конгресмен усесь час косив під дурника. І хороше було б кіно якби не відверте бездарно-комедійне закінчення, я навіть не зрозумів, що сталось, коли Демі почала примітивно погрожувати пістолетом на яхті й до самого фіналу з тупим арештом та журналістами не в тему - фільм став якоюсь невдалою пародією на щось
4/10 - вийшло, що дивитись його можна лише через гарні еротичні танці

Додано через 5 хвилин 44 секунди:

Думав Демі має Оскар, а вона має лише три Малини і виходить найвідоміше в її житті, що вона екс-дружина Брюса Вілліса, якого покинула через Кутчера, що їй в сини годиться - розчарувався остаточно

Ваш часовий пояс: GMT + 2 Години

Нова тема   Відповісти