Віртуальність / Віртуозність / Virtuosity (1995) 1080p 2xUkr/Eng | Sub Eng

Нові коментарі

Нова тема   Відповісти
Автор Повідомлення
Anonymous 







2018-08-25 13:53  
Віртуальність / Віртуозність / Virtuosity (1995) 1080p 2xUkr/Eng | Sub Eng

Віртуальність / Віртуозність / Virtuosity (1995) 1080p 2xUkr/Eng | Sub Eng


Жанр: екшн, кримінальний, фантастика, трилер
Країна: США



Кінокомпанія: Paramount Pictures
Режисер: Бретт Леонард / Brett Leonard
Актори: Дензел Вашинґтон / Denzel Washington, Келлі Лінч / Kelly Lynch, Рассел Кроу / Russell Crowe, Стівен Сніпелла / Stephen Spinella, Вільям Форсайт / William Forsythe, Вільям Фіхтнер / William Fichtner, Кейлі Куоко / Kaley Cuoco, Трейсі Лордс / Traci Lords та інші

Сюжет:
Його ім'я Сід 6,7. Він створений з двохсот добірних покидьків, негідників і психопатів, наділений інтелектом і хитрістю найзнаменитіших серійних убивць в історії людства.
Сід 6,7 був спеціально придуманий, як досконале втілення зла і жорстокості, для особливої комп'ютерної програми, що допомагає поліцейським ловити злочинців. Але сталося непоправне.
Сіду вдалося втекти з кібернетичного простору в реальний світ. Ідеальний злочинець був на волі і жадав викласти людям страшний урок ...
Єдиною людиною, яка стала на шляху комп'ютерного садиста, виявився поліцейський на ім'я Паркер Барніс. Але офіцерові Барнісу завжди доводилося мати справу з бандитами з плоті і крові. Чи зможе він впоратися з невразливим Сідом 6,7?


Тривалість: 01:45:54
Якість: 1080p
Відео:
кодек:
розмір кадру: 1920х816
бітрейт: 10,4 Мб/с

Аудіо # 1:
мова: українська
переклад: багатоголосий закадровий
кодек: 2.0 (стерео)
бітрейт: 192 кб/с

Аудіо # 2:
мова: українська
переклад: багатоголосий закадровий
кодек: 2.0
бітрейт: 192 кб/с

Аудіо # 3:
мова: англійська
переклад: оригінал
кодек: 5.1
бітрейт: 1509 кб/с

Субтитри:
мова: англійська
тип: програмні (м'які)
формат: *.srt
Info
General
Unique ID : 171529907700722737124103370666919347553 (0x810B75642E2821EFAA98EDC31AFC4561)
Format :
Format version : Version 4 / Version 2
File size : 9.24 GiB
Duration : 1 h 45 min
Overall bit rate : 12.5 Mb/s
Encoded date : UTC 2018-08-25 11:39:51
Writing application : v6.1.0 ('Old Devil') built on Mar 4 2013 09:10:42
Writing library : libebml v1.3.0 + v1.4.0

Video
ID : 1
Format : AVC
Format/Info : Advanced Video Codec
Format profile : [email protected]
Format settings : CABAC / 5 Ref Frames
Format settings, CABAC : Yes
Format settings, ReFrames : 5 frames
Codec ID : V_MPEG4/ISO/AVC
Duration : 1 h 45 min
Bit rate : 10.4 Mb/s
Width : 1 920 pixels
Height : 816 pixels
Display aspect ratio : 2.35:1
Frame rate mode : Constant
Frame rate : 23.976 (24000/1001) FPS
Color space : YUV
Chroma subsampling : 4:2:0
Bit depth : 8 bits
Scan type : Progressive
Bits/(Pixel*Frame) : 0.276
Stream size : 7.66 GiB (83%)
Writing library : core 133 r2334 a3ac64b
Encoding settings : cabac=1 / ref=5 / deblock=1:-2:-2 / analyse=0x3:0x113 / me=umh / subme=10 / psy=1 / psy_rd=1.00:0.15 / mixed_ref=1 / me_range=24 / chroma_me=1 / trellis=2 / 8x8dct=1 / cqm=0 / deadzone=21,11 / fast_pskip=0 / chroma_qp_offset=-3 / threads=6 / lookahead_threads=1 / sliced_threads=0 / nr=0 / decimate=1 / interlaced=0 / bluray_compat=0 / constrained_intra=0 / bframes=8 / b_pyramid=2 / b_adapt=2 / b_bias=0 / direct=1 / weightb=1 / open_gop=0 / weightp=2 / keyint=230 / keyint_min=23 / scenecut=40 / intra_refresh=0 / rc_lookahead=40 / rc=crf / mbtree=0 / crf=20.0 / qcomp=0.60 / qpmin=0 / qpmax=69 / qpstep=4 / vbv_maxrate=50000 / vbv_bufsize=62500 / crf_max=0.0 / nal_hrd=none / ip_ratio=1.40 / pb_ratio=1.30 / aq=1:1.00
Language : English
Default : Yes
Forced : No

Audio #1
ID : 2
Format : AC-3
Format/Info : Audio Coding 3
Codec ID : A_AC3
Duration : 1 h 45 min
Bit rate mode : Constant
Bit rate : 192 kb/s
Channel(s) : 2 channels
Channel positions : Front: L R
Sampling rate : 48.0 kHz
Frame rate : 31.250 FPS (1536 SPF)
Bit depth : 16 bits
Compression mode : Lossy
Stream size : 145 MiB (2%)
Title : UKR (Inter)
Language : Ukrainian
Service kind : Complete Main
Default : Yes
Forced : Yes

Audio #2
ID : 3
Format : AC-3
Format/Info : Audio Coding 3
Codec ID : A_AC3
Duration : 1 h 45 min
Bit rate mode : Constant
Bit rate : 192 kb/s
Channel(s) : 2 channels
Channel positions : Front: L R
Sampling rate : 48.0 kHz
Frame rate : 31.250 FPS (1536 SPF)
Bit depth : 16 bits
Compression mode : Lossy
Stream size : 145 MiB (2%)
Title : UKR (ICTV)
Language : Ukrainian
Service kind : Complete Main
Default : No
Forced : No

Audio #3
ID : 4
Format :
Format/Info : Digital Theater Systems
Codec ID : A_DTS
Duration : 1 h 45 min
Bit rate mode : Constant
Bit rate : 1 509 kb/s
Channel(s) : 6 channels
Channel positions : Front: L C R, Side: L R, LFE
Sampling rate : 48.0 kHz
Frame rate : 93.750 FPS (512 SPF)
Bit depth : 24 bits
Compression mode : Lossy
Stream size : 1.12 GiB (12%)
Title : Original
Language : English
Default : No
Forced : No

Text
ID : 5
Format : UTF-8
Codec ID : S_TEXT/UTF8
Codec ID/Info : UTF-8 Plain Text
Language : English
Default : No
Forced : No
Скріншоти









Подяки:
- п. xslim та п. gig_Panas за запис з ТБ;
- п. voin747 за синхронізацію;
- п. gig_Panas за постер.
Особиста подяка пану denixx за надану матеріальну допомогу на підтримку цього і майбутніх релізів.
Джерело:


Срібний реліз (на рейтинг впливає 50% завантаженого)
 Трекер:    Зареєстрований   

Завантажити / скачати фільм українською



відео для новачків



 Зареєстрований:   2018-08-25 13:53
 Розмір:   9.24 GB 
 Оцінка фільму:   10/10 (Голосів: 1)
   
Інші релізи
Ваш часовий пояс: GMT + 2 Години

Нова тема   Відповісти