Ватель / Vatel (2000) AVC Ukr/Eng | Sub Eng

Нові коментарі

Нова тема   Відповісти
Автор Повідомлення
staf777 
Відео Гуртом - підтримка та поширення
Відео Гуртом - підтримка та поширення


З нами з: 16.11.16
Востаннє: 14.12.19
Повідомлень: 3062

2018-08-25 10:38  
Ватель / Vatel (2000) AVC Ukr/Eng | Sub Eng

Ватель / Vatel (2000) AVC Ukr/Eng | Sub Eng


Жанр: біографічний, драма, романтичний
Країна: Франція, Великобританія, Бельгія



Кінокомпанія: Légende Entreprises, Gaumont, Canal+
Режисер: Роланд Жоффе / Roland Joffé
Актори: Жерар Депардьє / Gérard Depardieu, Ума Турман / Uma Thurman, Тім Рот / Tim Roth, Тімоті Сполл / Timothy Spall, Джуліан Ґловер / Julian Glover, Джуліан Сендс / Julian Sands, Мюррей Лачлан Янґ / Murray Lachlan Young та інші

Сюжет:
Франція. 1671 рік. Його Величність король Луї XIV у супроводі королеви і численної свити виявляє бажання відвідати замок принца Де Конде і провести там три дні. Небувала честь одночасно і радує і лякає принца, адже збіднілий маєток навряд зможе надати гідний першої персони прийом.

Єдина надія господаря - його вірний дворецький - влаштовувач свят і вигадник Франсуа Ватель. Очоливши армію слуг, він готує феєричне дійство, приправлене вишуканим меню і небувалими веселощами.

Розкішний прийом вдався на славу, захопленню знатних гостей немає межі, а перша персона в державі знову благоволить опальному принцу.

Але на фоні великого свята не утихають політичні, палацові і любовні інтриги, в павутину яких виявляється втягнутим і сам Ватель...


Тривалість: 01:57:08
Якість: AVC
Відео:
кодек:
розмір кадру: 1024x436
бітрейт: 3210 кб/с

Аудіо # 1:
мова: українська
переклад: багатоголосий закадровий
кодек: 2.0
бітрейт: 192 кб/с

Аудіо # 2:
мова: англійська
переклад: оригінал
кодек: 5.1
бітрейт: 448 кб/с

Субтитри:
мова: англійська
тип: програмні (м'які)
формат: *.srt
Info
General
Unique ID : 332414494052389164184405750398610581946 (0xFA14B3EAFCF00B2B70563621AC0829BA)
Complete name : H:\AVC\Vatel (2000) AVC [UKR_ENG] [Hurtom].
Format :
Format version : Version 4 / Version 2
File size : 3.15 GiB
Duration : 1 h 57 min
Overall bit rate : 3 850 kb/s
Movie name : Vatel (2000) AVC [UKR_ENG] [Hurtom]
Encoded date : UTC 2018-08-25 08:48:37
Writing application : v24.0.0 ('Beyond The Pale') 64-bit
Writing library : libebml v1.3.6 + v1.4.9
Cover : Yes
Attachments : cover.jpg

Video
ID : 1
Format : AVC
Format/Info : Advanced Video Codec
Format profile : [email protected]
Format settings : CABAC / 10 Ref Frames
Format settings, CABAC : Yes
Format settings, ReFrames : 10 frames
Codec ID : V_MPEG4/ISO/AVC
Duration : 1 h 57 min
Bit rate : 3 210 kb/s
Width : 1 024 pixels
Height : 436 pixels
Display aspect ratio : 2.35:1
Frame rate mode : Constant
Frame rate : 24.000 FPS
Color space : YUV
Chroma subsampling : 4:2:0
Bit depth : 8 bits
Scan type : Progressive
Bits/(Pixel*Frame) : 0.300
Stream size : 2.62 GiB (83%)
Writing library : core 144 r2525 40bb568
Encoding settings : cabac=1 / ref=10 / deblock=1:-3:-3 / analyse=0x3:0x133 / me=umh / subme=11 / psy=1 / psy_rd=1.00:0.20 / mixed_ref=1 / me_range=32 / chroma_me=1 / trellis=2 / 8x8dct=1 / cqm=0 / deadzone=21,11 / fast_pskip=0 / chroma_qp_offset=-3 / threads=6 / lookahead_threads=1 / sliced_threads=0 / nr=0 / decimate=0 / interlaced=0 / bluray_compat=0 / constrained_intra=0 / bframes=12 / b_pyramid=2 / b_adapt=2 / b_bias=0 / direct=3 / weightb=1 / open_gop=0 / weightp=2 / keyint=240 / keyint_min=23 / scenecut=40 / intra_refresh=0 / rc=2pass / mbtree=0 / bitrate=3210 / ratetol=1.0 / qcomp=0.60 / qpmin=0 / qpmax=69 / qpstep=4 / cplxblur=20.0 / qblur=0.5 / ip_ratio=1.40 / pb_ratio=1.30 / aq=3:1.00
Language : English
Default : Yes
Forced : No

Audio #1
ID : 2
Format : AC-3
Format/Info : Audio Coding 3
Codec ID : A_AC3
Duration : 1 h 57 min
Bit rate mode : Constant
Bit rate : 192 kb/s
Channel(s) : 2 channels
Channel positions : Front: L R
Sampling rate : 48.0 kHz
Frame rate : 31.250 FPS (1536 SPF)
Bit depth : 16 bits
Compression mode : Lossy
Stream size : 161 MiB (5%)
Title : (1+1)
Language : Ukrainian
Service kind : Complete Main
Default : Yes
Forced : Yes

Audio #2
ID : 3
Format : AC-3
Format/Info : Audio Coding 3
Codec ID : A_AC3
Duration : 1 h 57 min
Bit rate mode : Constant
Bit rate : 448 kb/s
Channel(s) : 6 channels
Channel positions : Front: L C R, Side: L R, LFE
Sampling rate : 48.0 kHz
Frame rate : 31.250 FPS (1536 SPF)
Bit depth : 16 bits
Compression mode : Lossy
Stream size : 375 MiB (12%)
Language : English
Service kind : Complete Main
Default : No
Forced : No

Text
ID : 4
Format : UTF-8
Codec ID : S_TEXT/UTF8
Codec ID/Info : UTF-8 Plain Text
Duration : 1 h 50 min
Bit rate : 37 b/s
Count of elements : 965
Stream size : 30.1 KiB (0%)
Language : English
Default : No
Forced : No

Menu
00:00:00.000 : :Chapter 01
00:10:42.875 : :Chapter 02
00:20:51.333 : :Chapter 03
00:30:07.500 : :Chapter 04
00:41:43.083 : :Chapter 05
00:49:54.916 : :Chapter 06
00:59:17.458 : :Chapter 07
01:05:30.041 : :Chapter 08
01:17:39.041 : :Chapter 09
01:31:39.457 : :Chapter 10
01:39:19.041 : :Chapter 11
01:46:58.707 : :Chapter 12
01:57:08.166 : :Chapter 13
Скріншоти




Запис з ТБ: OlegCena;
Синхронізація:patriot2305;


Джерело: &
Особиста оцінка: 8 - мені сподобалося
Ватель / Vatel (2000) AVC Ukr/Eng | Sub Eng


Срібний реліз (на рейтинг впливає 50% завантаженого)
 Трекер:    Зареєстрований   

Завантажити / скачати фільм українською



відео для новачків



 Зареєстрований:   2018-08-25 11:42
 Розмір:   3.15 GB 
 Оцінка фільму:   8.2/10 (Голосів: 10)
   
Інші релізи
   Ватель / Vatel (2000) 720p Ukr/Eng | Sub Eng staf777  1 / 0   7.88 GB   2017-02-19 18:13 
   Ватель / Vatel (2000) patriot2305  2 / 0   1.45 GB   2015-07-12 16:17 
bot 
робот


З нами з: 30.09.07
Востаннє: 26.05.05
Повідомлень: 22651

2018-08-25 11:42  
Тему перенесено з Анонси релізів до форуму Фільми


staf777

ProgBassing 
Попереджень: 1
Попереджень: 1 


З нами з: 08.03.08
Востаннє: 13.12.19
Повідомлень: 874

2018-08-28 08:04  
о-ох... нарешті хтось виклав!
Ваш часовий пояс: GMT + 2 Години

Нова тема   Відповісти