Гроші на двох / Two For The Money (2005) 720p 3xUkr/Eng | Sub Eng

Нові коментарі

Нова тема   Відповісти
Автор Повідомлення
Anonymous 







2018-08-25 10:45  
Гроші на двох / Two For The Money (2005) 720p 3xUkr/Eng | Sub Eng

Гроші на двох / Two For The Money (2005) 720p 3xUkr/Eng | Sub Eng


Жанр: трилер, драма, спорт
Країна: США



Кінокомпанія: Cosmic Entertainment, Morgan Creek Productions, Universal Pictures
Режисер: Ді Джей Карузо
Актори: Аль Пачіно, Меттью МакКонахі, Рене Руссо, Арманд Ассанте, Джеремі Півень, Джеймі Кинг, Кевін Чепмен, Ральф Гармен, Гедде Ватанабе, Карлі Поуп та інші

Сюжет:
Форвард успішної футбольної команди Брендон, одержавши травму і назавжди розпрощавшись із спортивною кар'єрою, вимушений шукати інші способи заробітку. Він розпочав робити прогнози на матчі американського футболу і це виходило в нього досить вдало. Невдовзі його новий талант помічає букмекер Волтер, що знає напевно, як легко і швидко примножити капітал та укладає з екс-футболістом авантюрний договір. Жонглюючи мільйонами доларів, Брендон і Волтер вступають в небезпечну гру, де програш подібний смерті. До ним в руки пливуть скажені гроші, але чи витримає Болівар двох?..


Тривалість: 02:02:22
Якість: 720p
Відео:
кодек:
розмір кадру: 1280х544
бітрейт: 6700 кб/с

Аудіо # 1:
мова: українська
переклад: багатоголосий закадровий
кодек: 2.0
бітрейт: 192 кб/с

Аудіо # 2:
мова: українська
переклад: багатоголосий закадровий
кодек: 2.0
бітрейт: 192 кб/с
щодо озвучення:
- доріжка не дуже якісна
- перші 55 секунд озвучення в доріжці від України замінено вирізкою з доріжки від Нового каналу: телеканал показував їх російською

Аудіо # 3:
мова: українська
переклад: багатоголосий закадровий
кодек: 2.0 (з 5.1)
бітрейт: 192 кб/с

Аудіо # 4:
мова: англійська
переклад: оригінал
кодек: 5.1
бітрейт: 1509 кб/с

Субтитри:
мова: англійська (Full, SDH)
тип: програмні (м'які)
формат: *.srt
Info
General
Unique ID : 204904716627057487798163687389277372454 (0x9A273683E12DF7AF8E33FD8E912EC026)
Format :
Format version : Version 4 / Version 2
File size : 7.52 GiB
Duration : 2 h 2 min
Overall bit rate : 8 783 kb/s
Encoded date : UTC 2018-08-25 07:37:21
Writing application : v6.1.0 ('Old Devil') built on Mar 4 2013 09:10:42
Writing library : libebml v1.3.0 + v1.4.0

Video
ID : 1
Format : AVC
Format/Info : Advanced Video Codec
Format profile : [email protected]
Format settings : CABAC / 11 Ref Frames
Format settings, CABAC : Yes
Format settings, ReFrames : 11 frames
Codec ID : V_MPEG4/ISO/AVC
Duration : 2 h 2 min
Bit rate : 6 700 kb/s
Width : 1 280 pixels
Height : 544 pixels
Display aspect ratio : 2.35:1
Frame rate mode : Constant
Frame rate : 23.976 (24000/1001) FPS
Color space : YUV
Chroma subsampling : 4:2:0
Bit depth : 8 bits
Scan type : Progressive
Bits/(Pixel*Frame) : 0.401
Stream size : 5.58 GiB (74%)
Writing library : core 110 r1820 fdcf2ae
Encoding settings : cabac=1 / ref=11 / deblock=1:-3:-3 / analyse=0x3:0x133 / me=umh / subme=9 / psy=1 / psy_rd=1.20:0.20 / mixed_ref=1 / me_range=32 / chroma_me=1 / trellis=2 / 8x8dct=1 / cqm=0 / deadzone=21,11 / fast_pskip=0 / chroma_qp_offset=-3 / threads=6 / sliced_threads=0 / nr=0 / decimate=0 / interlaced=0 / constrained_intra=0 / bframes=7 / b_pyramid=2 / b_adapt=2 / b_bias=0 / direct=3 / weightb=1 / open_gop=0 / weightp=2 / keyint=250 / keyint_min=23 / scenecut=40 / intra_refresh=0 / rc_lookahead=60 / rc=2pass / mbtree=1 / bitrate=6700 / ratetol=1.0 / qcomp=0.75 / qpmin=0 / qpmax=51 / qpstep=4 / cplxblur=20.0 / qblur=0.5 / vbv_maxrate=50000 / vbv_bufsize=62500 / ip_ratio=1.40 / aq=1:0.80 / nal_hrd=none
Language : English
Default : Yes
Forced : No

Audio #1
ID : 2
Format : AC-3
Format/Info : Audio Coding 3
Codec ID : A_AC3
Duration : 2 h 2 min
Bit rate mode : Constant
Bit rate : 192 kb/s
Channel(s) : 2 channels
Channel positions : Front: L R
Sampling rate : 48.0 kHz
Frame rate : 31.250 FPS (1536 SPF)
Bit depth : 16 bits
Compression mode : Lossy
Stream size : 168 MiB (2%)
Title : UKR (CINE+)
Language : Ukrainian
Service kind : Complete Main
Default : Yes
Forced : Yes

Audio #2
ID : 3
Format : AC-3
Format/Info : Audio Coding 3
Codec ID : A_AC3
Duration : 2 h 2 min
Bit rate mode : Constant
Bit rate : 192 kb/s
Channel(s) : 2 channels
Channel positions : Front: L R
Sampling rate : 48.0 kHz
Frame rate : 31.250 FPS (1536 SPF)
Bit depth : 16 bits
Compression mode : Lossy
Stream size : 168 MiB (2%)
Title : UKR (ТРК "Україна")
Language : Ukrainian
Service kind : Complete Main
Default : No
Forced : No

Audio #3
ID : 4
Format : AC-3
Format/Info : Audio Coding 3
Codec ID : A_AC3
Duration : 2 h 2 min
Bit rate mode : Constant
Bit rate : 192 kb/s
Channel(s) : 2 channels
Channel positions : Front: L R
Sampling rate : 48.0 kHz
Frame rate : 31.250 FPS (1536 SPF)
Bit depth : 16 bits
Compression mode : Lossy
Stream size : 168 MiB (2%)
Title : UKR (Новий)
Language : Ukrainian
Service kind : Complete Main
Default : No
Forced : No

Audio #4
ID : 5
Format :
Format/Info : Digital Theater Systems
Codec ID : A_DTS
Duration : 2 h 2 min
Bit rate mode : Constant
Bit rate : 1 509 kb/s
Channel(s) : 6 channels
Channel positions : Front: L C R, Side: L R, LFE
Sampling rate : 48.0 kHz
Frame rate : 93.750 FPS (512 SPF)
Bit depth : 24 bits
Compression mode : Lossy
Stream size : 1.29 GiB (17%)
Language : English
Default : No
Forced : No

Text #1
ID : 6
Format : UTF-8
Codec ID : S_TEXT/UTF8
Codec ID/Info : UTF-8 Plain Text
Language : English
Default : No
Forced : No

Text #2
ID : 7
Format : UTF-8
Codec ID : S_TEXT/UTF8
Codec ID/Info : UTF-8 Plain Text
Title : SDH
Language : English
Default : No
Forced : No

Menu
00:00:00.000 : en:It Was About Purity
00:01:53.739 : en:Hot Shot Quarterback
00:04:01.992 : en:Biggest 900 Line in Vegas
00:08:11.199 : en:The Job Offer
00:10:17.367 : en:Billion Dollar Business
00:14:53.768 : en:Interview and a Manicure
00:17:15.785 : en:Becoming John Anthony
00:23:28.324 : en:Dinner Challenge
00:28:40.552 : en:Picking and Selling
00:32:17.352 : en:We're All Lemons
00:36:21.846 : en:Sell With Confidence
00:39:52.557 : en:Building an Empire
00:43:39.700 : en:Sports Advisors
00:47:28.721 : en:Like Having a Son
00:50:11.050 : en:Jealousy All Around
00:54:03.907 : en:That You Dad?
00:57:01.877 : en:No Such Thing As Too Far
01:01:26.308 : en:Take It Or Leave It
01:04:04.549 : en:Perfect Weekend
01:06:40.747 : en:Challenge Me
01:10:49.162 : en:A Ride With John Anthony
01:14:19.914 : en:Dangerous Territory
01:19:17.211 : en:Sorry Doesn't Cut It
01:23:30.380 : en:You Have to Go
01:26:18.757 : en:The Brandon Thing
01:30:25.629 : en:Meaningless Touchdown
01:33:02.410 : en:Between You and Me
01:39:32.425 : en:Flip a Coin
01:46:56.952 : en:Super XXXX
01:49:33.734 : en:This Is the Game
01:55:23.041 : en:Bet on It
01:56:50.045 : en:End Credits
Скріншоти









За українські звукові доріжки подяка п.: Romario_O, РОМЕО, Arsenfpu, sando7, -_-B_E_N_D_E_R-_-
За постер подяка п. Grytzz
Особиста подяка пану denixx за надану матеріальну допомогу на підтримку цього і майбутніх релізів.
Джерело:


 Трекер:    Зареєстрований   

Завантажити / скачати фільм українською



відео для новачків



 Зареєстрований:   2018-08-25 10:45
 Розмір:   7.52 GB 
 Оцінка фільму:   8.2/10 (Голосів: 5)
   
Інші релізи
   Гроші на двох / Two For The Money (2005) 3xUkr/Eng -_-B_E_N_D_E_R-_-  2 / 0   2.09 GB   2018-04-14 13:13 
Беееендеррр!!! 
Новенький


З нами з: 23.08.18
Востаннє: 25.08.18
Повідомлень: 7

2018-08-25 13:07  
-_-B_E_N_D_E_R-_- написано:
переклад: багатоголосий закадровий | Новий канал | з неякісної псевдо 5.1

Arsenfpu написано:

щодо озвучення:
- друга доріжка не дуже якісна
- перші 55 секунд озвучення в доріжці від України замінено вирізкою з другої доріжки: телеканал показував їх російською


Додано через 23 хвилини 1 секунду:

Anonymous написано:
- доріжка не дуже якісна

Там малось на увазі доріжка від нового

Ваш часовий пояс: GMT + 2 Години

Нова тема   Відповісти