Близнята / Twins (1988) 1080p Ukr/Eng | Sub Eng

Нові коментарі

Нова тема   Відповісти
Автор Повідомлення
Anonymous 







2018-08-25 10:30  
Близнята / Twins (1988) 1080p Ukr/Eng | Sub Eng

Близнята / Twins (1988) 1080p Ukr/Eng | Sub Eng


Жанр: комедія
Країна: США



Кінокомпанія: Universal Pictures
Режисер: Айван Райтман
Актори: Арнольд Шварценеґґер, Денні Де Віто, Келлі Престон, Хлої Вебб, Бонні Бартлетт, Маршалл Белл, Трей Вілсон, Х'ю О'Брайан, Неїмайя Персофф, Девід Карузо

Сюжет:
Суперзірки Шварценеггер і Де Віто об'єднали зусилля в легкій розважальній комедії, що мала великий касовий успіх.
Несподіваний оборот приймає генетичний експеримент, під час якого новонароджених близнюків, які, до речі, зовсім несхожі один на одного, розлучають на довгі роки. Але нещасні брати нарешті зустрічаються... Джуліус (Арнольд Шварценеґґер), освічений гігант з добрим серцем, який зовсім не знає життя, і Вінсент (Денні Де Віто), коротун з незнищенною жадобою до грошей і жінок. У компанії подружок і найманого вбивці, який їх переслідує, брати вирушають у подорож по країні на пошуки своєї матері - але врешті-решт знаходять набагато більше.


Тривалість: 01:46:49
Якість: 1080p
Відео:
кодек:
розмір кадру: 1920х1040
бітрейт: 12 Мб/с

Аудіо # 1:
мова: українська
переклад: багатоголосий закадровий , , ,
кодек: 2.0
бітрейт: 192 кб/с

Аудіо # 2:
мова: англійська
переклад: оригінал
кодек: 2.0
бітрейт: 192 кб/с

Субтитри:
мова: англійська
тип: програмні (м'які)
формат: *.srt
Info
General
Unique ID : 208124081340944887589633391548582399693 (0x9C933D73474EF316962E504C7E710ECD)
Format :
Format version : Version 4 / Version 2
File size : 9.24 GiB
Duration : 1 h 46 min
Overall bit rate : 12.4 Mb/s
Encoded date : UTC 2018-08-25 07:22:27
Writing application : v6.1.0 ('Old Devil') built on Mar 4 2013 09:10:42
Writing library : libebml v1.3.0 + v1.4.0

Video
ID : 1
Format : AVC
Format/Info : Advanced Video Codec
Format profile : [email protected]
Format settings : CABAC / 4 Ref Frames
Format settings, CABAC : Yes
Format settings, ReFrames : 4 frames
Codec ID : V_MPEG4/ISO/AVC
Duration : 1 h 46 min
Bit rate : 12.0 Mb/s
Width : 1 920 pixels
Height : 1 040 pixels
Display aspect ratio : 1.85:1
Frame rate mode : Constant
Frame rate : 23.976 (24000/1001) FPS
Color space : YUV
Chroma subsampling : 4:2:0
Bit depth : 8 bits
Scan type : Progressive
Bits/(Pixel*Frame) : 0.251
Stream size : 8.77 GiB (95%)
Writing library : core 146 r2538 121396c
Encoding settings : cabac=1 / ref=4 / deblock=1:-1:-1 / analyse=0x3:0x133 / me=umh / subme=11 / psy=1 / psy_rd=1.00:0.00 / mixed_ref=1 / me_range=32 / chroma_me=1 / trellis=2 / 8x8dct=1 / cqm=0 / deadzone=21,11 / fast_pskip=0 / chroma_qp_offset=-2 / threads=12 / lookahead_threads=2 / sliced_threads=0 / nr=0 / decimate=0 / interlaced=0 / bluray_compat=0 / constrained_intra=0 / bframes=12 / b_pyramid=2 / b_adapt=2 / b_bias=0 / direct=3 / weightb=1 / open_gop=0 / weightp=2 / keyint=240 / keyint_min=23 / scenecut=40 / intra_refresh=0 / rc_lookahead=60 / rc=2pass / mbtree=0 / bitrate=12000 / ratetol=1.0 / qcomp=0.60 / qpmin=0 / qpmax=69 / qpstep=4 / cplxblur=20.0 / qblur=0.5 / vbv_maxrate=50000 / vbv_bufsize=62500 / nal_hrd=none / filler=0 / ip_ratio=1.40 / pb_ratio=1.30 / aq=1:0.80
Language : English
Default : No
Forced : No

Audio #1
ID : 2
Format : AC-3
Format/Info : Audio Coding 3
Codec ID : A_AC3
Duration : 1 h 46 min
Bit rate mode : Constant
Bit rate : 192 kb/s
Channel(s) : 2 channels
Channel positions : Front: L R
Sampling rate : 48.0 kHz
Frame rate : 31.250 FPS (1536 SPF)
Bit depth : 16 bits
Compression mode : Lossy
Stream size : 147 MiB (2%)
Title : UKR (ICTV, NLO-TV, Ukraine, 1+1)
Language : Ukrainian
Service kind : Complete Main
Default : Yes
Forced : Yes

Audio #2
ID : 3
Format : AC-3
Format/Info : Audio Coding 3
Codec ID : A_AC3
Duration : 1 h 46 min
Bit rate mode : Constant
Bit rate : 192 kb/s
Channel(s) : 2 channels
Channel positions : Front: L R
Sampling rate : 48.0 kHz
Frame rate : 31.250 FPS (1536 SPF)
Bit depth : 16 bits
Compression mode : Lossy
Stream size : 147 MiB (2%)
Language : English
Service kind : Complete Main
Default : No
Forced : No

Text
ID : 4
Format : UTF-8
Codec ID : S_TEXT/UTF8
Codec ID/Info : UTF-8 Plain Text
Language : English
Default : No
Forced : No
Скріншоти









За українську доріжку дякую п.: Lan, dvorsky
За постер дякую пану Пан_Олександр
Особиста подяка пану denixx за надану матеріальну допомогу на підтримку цього і майбутніх релізів.
Джерело:


Срібний реліз (на рейтинг впливає 50% завантаженого)
 Трекер:    Зареєстрований   

Завантажити / скачати фільм українською



відео для новачків



 Зареєстрований:   2018-08-25 10:30
 Розмір:   9.24 GB 
 Оцінка фільму:   10/10 (Голосів: 3)
   
Інші релізи
   Близнята / Twins (1988) Ukr/Eng Arsenfpu  7 / 0   1.88 GB   2018-01-05 21:04 
Ваш часовий пояс: GMT + 2 Години

Нова тема   Відповісти