Сурогат / The Sessions (2012) 1080p Ukr/Eng | Sub Ukr/Eng

Нові коментарі

Нова тема   Відповісти
Автор Повідомлення
Anonymous 







2018-08-25 09:18  
Сурогат / The Sessions (2012) 1080p Ukr/Eng | Sub Ukr/Eng

Сурогат / The Sessions (2012) 1080p Ukr/Eng | Sub Ukr/Eng


Жанр: біографічний, комедія, драма
Країна: США



Кінокомпанія: Fox Searchlight Pictures, Such Much Films, Rhino Films
Режисер: Бен Левін
Актори: Джон Гокс, Гелен Гант, Вільям Х. Мейсі, Мун Бладгуд, Анніка Маркс, Ріа Перлмен, Адам Аркін, Вільям Ерл Браун, Робін Вайгерт, Блейк Ліндслі, Ло Мінг, Тобіаш Форрест, Джаррод Бейлі, Джеймс Мартінез, Пол Маклін, Фібі Левін

Сюжет:
Марк О'Брайєн прикутий до ліжка через хворобу. Його засмучує тільки те, що в свої неповні сорок він так і не пізнав жінок. І одного разу він вирішує виправити ситуацію. На допомогу до нього приходить терапевт Шеріл Коен Грін...


Тривалість: 01:35:07
Якість: 1080p
Відео:
кодек:
розмір кадру: 1920х1040
бітрейт: 8320 кб/с

Аудіо # 1:
мова: українська
переклад: багатоголосий закадровий
кодек: 2.0
бітрейт: 192 кб/с

Аудіо # 2:
мова: англійська
переклад: оригінал
кодек: 5.1
бітрейт: 1509 кб/с

Субтитри:
мова: українська
тип: програмні (м'які)
формат: *.srt

Субтитри:
мова: англійська
тип: програмні (м'які)
формат: *.srt
Info
General
Unique ID : 214305995422459465391164879330223552983 (0xA139D558B1285D908D5F6BE57A2379D7)
Format :
Format version : Version 4 / Version 2
File size : 6.64 GiB
Duration : 1 h 35 min
Overall bit rate : 9 995 kb/s
Encoded date : UTC 2018-08-25 06:12:13
Writing application : v6.1.0 ('Old Devil') built on Mar 4 2013 09:10:42
Writing library : libebml v1.3.0 + v1.4.0

Video
ID : 1
Format : AVC
Format/Info : Advanced Video Codec
Format profile : [email protected]
Format settings : CABAC / 4 Ref Frames
Format settings, CABAC : Yes
Format settings, ReFrames : 4 frames
Codec ID : V_MPEG4/ISO/AVC
Duration : 1 h 35 min
Bit rate : 8 320 kb/s
Width : 1 920 pixels
Height : 1 040 pixels
Display aspect ratio : 1.85:1
Frame rate mode : Constant
Frame rate : 23.976 FPS
Color space : YUV
Chroma subsampling : 4:2:0
Bit depth : 8 bits
Scan type : Progressive
Bits/(Pixel*Frame) : 0.174
Stream size : 5.38 GiB (81%)
Writing library : core 125 r2208 d9d2288
Encoding settings : cabac=1 / ref=4 / deblock=1:1:1 / analyse=0x3:0x113 / me=umh / subme=10 / psy=1 / psy_rd=1.05:0.10 / mixed_ref=1 / me_range=48 / chroma_me=1 / trellis=2 / 8x8dct=1 / cqm=0 / deadzone=21,11 / fast_pskip=0 / chroma_qp_offset=-2 / threads=12 / lookahead_threads=2 / sliced_threads=0 / nr=0 / decimate=1 / interlaced=0 / bluray_compat=0 / constrained_intra=0 / bframes=6 / b_pyramid=2 / b_adapt=2 / b_bias=0 / direct=3 / weightb=1 / open_gop=0 / weightp=2 / keyint=250 / keyint_min=23 / scenecut=40 / intra_refresh=0 / rc=2pass / mbtree=0 / bitrate=8320 / ratetol=2.0 / qcomp=0.70 / qpmin=0 / qpmax=69 / qpstep=4 / cplxblur=20.0 / qblur=0.5 / ip_ratio=1.40 / pb_ratio=1.30 / aq=2:1.00
Language : English
Default : Yes
Forced : Yes

Audio #1
ID : 2
Format : AC-3
Format/Info : Audio Coding 3
Codec ID : A_AC3
Duration : 1 h 35 min
Bit rate mode : Constant
Bit rate : 192 kb/s
Channel(s) : 2 channels
Channel positions : Front: L R
Sampling rate : 48.0 kHz
Frame rate : 31.250 FPS (1536 SPF)
Bit depth : 16 bits
Compression mode : Lossy
Stream size : 131 MiB (2%)
Title : UKR (1+1)
Language : Ukrainian
Service kind : Complete Main
Default : Yes
Forced : Yes

Audio #2
ID : 3
Format :
Format/Info : Digital Theater Systems
Codec ID : A_DTS
Duration : 1 h 35 min
Bit rate mode : Constant
Bit rate : 1 509 kb/s
Channel(s) : 6 channels
Channel positions : Front: L C R, Side: L R, LFE
Sampling rate : 48.0 kHz
Frame rate : 93.750 FPS (512 SPF)
Bit depth : 24 bits
Compression mode : Lossy
Stream size : 1.00 GiB (15%)
Language : English
Default : No
Forced : No

Text #1
ID : 4
Format : UTF-8
Codec ID : S_TEXT/UTF8
Codec ID/Info : UTF-8 Plain Text
Language : Ukrainian
Default : No
Forced : No

Text #2
ID : 5
Format : UTF-8
Codec ID : S_TEXT/UTF8
Codec ID/Info : UTF-8 Plain Text
Language : English
Default : No
Forced : No

Menu
00:00:00.000 : en:Chapter 01
00:03:45.225 : en:Chapter 02
00:08:18.372 : en:Chapter 03
00:13:29.016 : en:Chapter 04
00:17:04.982 : en:Chapter 05
00:19:21.243 : en:Chapter 06
00:23:21.233 : en:Chapter 07
00:27:56.508 : en:Chapter 08
00:33:08.486 : en:Chapter 09
00:37:57.400 : en:Chapter 10
00:41:44.210 : en:Chapter 11
00:45:08.747 : en:Chapter 12
00:50:01.164 : en:Chapter 13
00:53:56.858 : en:Chapter 14
00:55:28.616 : en:Chapter 15
01:00:20.908 : en:Chapter 16
01:03:12.580 : en:Chapter 17
01:06:56.470 : en:Chapter 18
01:09:34.753 : en:Chapter 19
01:10:26.597 : en:Chapter 20
01:13:15.974 : en:Chapter 21
01:21:01.273 : en:Chapter 22
01:27:06.304 : en:Chapter 23
01:30:39.642 : en:Chapter 24
Скріншоти









За українську доріжку подяка п. Bohdan237, Arsenfpu
Особиста подяка пану denixx за надану матеріальну допомогу на підтримку цього і майбутніх релізів.
Джерело:


 Трекер:    Зареєстрований   

Завантажити / скачати фільм українською



відео для новачків



 Зареєстрований:   2018-08-25 09:18
 Розмір:   6.64 GB 
 Оцінка фільму:   10/10 (Голосів: 3)
   
Інші релізи
   Сурогат / The Sessions (2012) Arsenfpu  5 / 0   1.46 GB   2017-10-11 22:12 
Ваш часовий пояс: GMT + 2 Години

Нова тема   Відповісти