Вбивства в Оксфорді / The Oxford Murders (2008) 1080p Ukr/Eng | Sub Eng

Нові коментарі

Нова тема   Відповісти
Автор Повідомлення
Anonymous 







2018-08-25 09:06  
Вбивства в Оксфорді / The Oxford Murders (2008) 1080p Ukr/Eng | Sub Eng

Вбивства в Оксфорді / The Oxford Murders (2008) 1080p Ukr/Eng | Sub Eng


Жанр: трилер, мелодрама, кримінальний
Країна: США



Кінокомпанія: Eurimages
Режисер: Алекс Де Ла Іглесіа
Актори: Елайджа Вуд, Джон Гарт, Леонор Вотлінг, Джулі Кокс, Берн Горман, Анна Мессі, Джім Картер, Алан Девід, Домінік Піньон

Сюжет:
Мартін - студент, що вступив у престижний університет - Оксфорд, де несподівано відбувається ціла серія загадкових вбивств. Він разом з детективом - прихильником логіки і математики - починає власне розслідування, влізаючи у все більш і більш цікаві закутки знаменитого університету...


Тривалість: 01:48:27
Якість: 1080p
Відео:
кодек:
розмір кадру: 1920х816
бітрейт: 14 Мб/с

Аудіо # 1:
мова: українська
переклад: багатоголосий закадровий
кодек: 2.0 (з 5.1)
бітрейт: 192 кб/с

Аудіо # 2:
мова: англійська
переклад: оригінал
кодек: 5.1
бітрейт: 448 кб/с

Субтитри:
мова: англійська
тип: програмні (м'які)
формат: *.srt
Info
General
Unique ID : 248815960905749704624569454439757096356 (0xBB30360274EC3A31B1B4572E2E3DA5A4)
Format :
Format version : Version 4 / Version 2
File size : 11.1 GiB
Duration : 1 h 48 min
Overall bit rate : 14.6 Mb/s
Movie name : The Oxford Murders 1080p
Encoded date : UTC 2018-08-25 05:58:15
Writing application : v6.1.0 ('Old Devil') built on Mar 4 2013 09:10:42
Writing library : libebml v1.3.0 + v1.4.0

Video
ID : 1
Format : AVC
Format/Info : Advanced Video Codec
Format profile : [email protected]
Format settings : CABAC / 4 Ref Frames
Format settings, CABAC : Yes
Format settings, ReFrames : 4 frames
Codec ID : V_MPEG4/ISO/AVC
Duration : 1 h 48 min
Bit rate : 14.0 Mb/s
Width : 1 920 pixels
Height : 816 pixels
Display aspect ratio : 2.35:1
Frame rate mode : Constant
Frame rate : 23.976 (24000/1001) FPS
Color space : YUV
Chroma subsampling : 4:2:0
Bit depth : 8 bits
Scan type : Progressive
Bits/(Pixel*Frame) : 0.373
Stream size : 10.4 GiB (94%)
Writing library : core 138 r2358 9e941d1
Encoding settings : cabac=1 / ref=4 / deblock=1:-3:-3 / analyse=0x3:0x133 / me=umh / subme=10 / psy=1 / psy_rd=1.00:0.00 / mixed_ref=1 / me_range=48 / chroma_me=1 / trellis=2 / 8x8dct=1 / cqm=0 / deadzone=21,11 / fast_pskip=1 / chroma_qp_offset=-2 / threads=6 / lookahead_threads=1 / sliced_threads=0 / nr=0 / decimate=1 / interlaced=0 / bluray_compat=0 / constrained_intra=0 / bframes=8 / b_pyramid=2 / b_adapt=2 / b_bias=0 / direct=3 / weightb=1 / open_gop=0 / weightp=2 / keyint=240 / keyint_min=24 / scenecut=40 / intra_refresh=0 / rc=2pass / mbtree=0 / bitrate=14000 / ratetol=1.0 / qcomp=0.60 / qpmin=0 / qpmax=69 / qpstep=4 / cplxblur=20.0 / qblur=0.5 / ip_ratio=1.40 / pb_ratio=1.30 / aq=1:1.00
Language : English
Default : Yes
Forced : No
Statistics Tags Issue : v9.3.1 ('Mask Machine') 64bit 2016-07-20 19:21:15 / v6.1.0 ('Old Devil') built on Mar 4 2013 09:10:42 2018-08-25 05:58:15
FromStats_BitRate : 13997179
FromStats_Duration : 01:48:27.376000000
FromStats_FrameCount : 156021
FromStats_StreamSize : 11385613761

Audio #1
ID : 2
Format : AC-3
Format/Info : Audio Coding 3
Codec ID : A_AC3
Duration : 1 h 48 min
Bit rate mode : Constant
Bit rate : 192 kb/s
Channel(s) : 2 channels
Channel positions : Front: L R
Sampling rate : 48.0 kHz
Frame rate : 31.250 FPS (1536 SPF)
Bit depth : 16 bits
Compression mode : Lossy
Stream size : 149 MiB (1%)
Title : UKR (NTN)
Language : Ukrainian
Service kind : Complete Main
Default : Yes
Forced : Yes

Audio #2
ID : 3
Format : AC-3
Format/Info : Audio Coding 3
Codec ID : A_AC3
Duration : 1 h 48 min
Bit rate mode : Constant
Bit rate : 448 kb/s
Channel(s) : 6 channels
Channel positions : Front: L C R, Side: L R, LFE
Sampling rate : 48.0 kHz
Frame rate : 31.250 FPS (1536 SPF)
Bit depth : 16 bits
Compression mode : Lossy
Stream size : 348 MiB (3%)
Language : English
Service kind : Complete Main
Default : No
Forced : No
Statistics Tags Issue : v9.3.1 ('Mask Machine') 64bit 2016-07-20 19:21:15 / v6.1.0 ('Old Devil') built on Mar 4 2013 09:10:42 2018-08-25 05:58:15
FromStats_BitRate : 448000
FromStats_Duration : 01:48:26.464000000
FromStats_FrameCount : 203327
FromStats_StreamSize : 364361984

Text
ID : 4
Format : UTF-8
Codec ID : S_TEXT/UTF8
Codec ID/Info : UTF-8 Plain Text
Language : English
Default : No
Forced : No
Statistics Tags Issue : v9.3.1 ('Mask Machine') 64bit 2016-07-20 19:21:15 / v6.1.0 ('Old Devil') built on Mar 4 2013 09:10:42 2018-08-25 05:58:15
FromStats_BitRate : 78
FromStats_Duration : 01:42:47.084000000
FromStats_FrameCount : 1734
FromStats_StreamSize : 60645

Menu
00:00:00.000 : en:Chapter 1
00:07:09.926 : en:Chapter 2
00:12:03.431 : en:Chapter 3
00:18:35.823 : en:Chapter 4
00:22:49.701 : en:Chapter 5
00:34:28.565 : en:Chapter 6
00:45:13.460 : en:Chapter 7
00:54:04.074 : en:Chapter 8
01:02:31.414 : en:Chapter 9
01:10:54.582 : en:Chapter 10
01:16:55.027 : en:Chapter 11
01:23:10.819 : en:Chapter 12
01:27:10.180 : en:Chapter 13
01:33:12.461 : en:Chapter 14
01:36:42.087 : en:Chapter 15
01:44:12.412 : en:Chapter 16
01:48:26.332 : en:Chapter 17
Скріншоти









За українську доріжку подяка п. olgaya, JACKUS
За укр. постер подяка п. fazza
Особиста подяка пану denixx за надану матеріальну допомогу на підтримку цього і майбутніх релізів.
Джерело:


 Трекер:    Зареєстрований   

Завантажити / скачати фільм українською



відео для новачків



 Зареєстрований:   2018-08-25 09:06
 Розмір:   11.09 GB 
 Оцінка фільму:   10/10 (Голосів: 1)
   
Інші релізи
   Вбивства в Оксфорді / The Oxford Murders (2008) Ukr/Eng JACKUS  8 / 0   2.18 GB   2010-03-14 22:47 
Ваш часовий пояс: GMT + 2 Години

Нова тема   Відповісти