Чоловік мрії / Бейсбольна лихоманка / Fever Pitch (2005) 1080p Ukr/Eng | Sub Eng

Нові коментарі

Нова тема   Відповісти
Автор Повідомлення
Anonymous 







2018-08-25 06:35  
Чоловік мрії / Бейсбольна лихоманка / Fever Pitch (2005) 1080p Ukr/Eng | Sub Eng

Чоловік мрії / Бейсбольна лихоманка / Fever Pitch (2005) 1080p Ukr/Eng | Sub Eng


Жанр: комедія
Країна: Німеччина, США



Кінокомпанія: Alan Greenspan Productions, ELC Productions Ltd.
Режисер: Пітер Фарреллі / Peter Farrelly , Боббі Фарреллі / Bobby Farrelly
Актори: Дрю Беррімор / Drew Barrymore, Джиммі Феллон / Jimmy Fallon, Джейсон Співак / Jason Spevack, Джек Келер / Jack Kehler, Скотт Северанс / Scott Severance

Сюжет:
Кажуть, що якщо до тридцяти років чоловік не одружився, значить, з ним щось не так. Якщо жінка до тридцяти років не вийшла заміж, значить, вона дуже багато працює. А що буде, якщо зустрінуться дві такі самотності? Процвітаюча бізнесвумен Лінді Мікс закохується в шкільного викладача Бена. Спочатку Лінді думає, що він чоловік її мрії, і їх стосунки дійсно здаються ідеальними, поки не настає черговий бейсбольний сезон. І тоді у Лінді з'являється серйозна суперниця - команда Boston Red Sox, до якої Бен відчуває фанатичну любов...


Тривалість: 01:43:21
Якість: 1080p
Відео:
кодек:
розмір кадру: 1920х816
бітрейт: 7116 кб/с

Аудіо # 1:
мова: українська
переклад: професійний дубльований
кодек: 2.0
бітрейт: 192 кб/с

Аудіо # 2:
мова: англійська
переклад: оригінал
кодек: 5.1
бітрейт: 1509 кб/с

Субтитри:
мова: англійська
тип: програмні (м'які)
формат: *.srt
Info
General
Unique ID : 212405427005372160383092166561229498094 (0x9FCBCC16BDB3267CB3A743BB94DCE6EE)
Format :
Format version : Version 4 / Version 2
File size : 6.36 GiB
Duration : 1 h 43 min
Overall bit rate : 8 817 kb/s
Encoded date : UTC 2018-08-25 03:28:07
Writing application : v6.1.0 ('Old Devil') built on Mar 4 2013 09:10:42
Writing library : libebml v1.3.0 + v1.4.0

Video
ID : 1
Format : AVC
Format/Info : Advanced Video Codec
Format profile : [email protected]
Format settings : CABAC / 4 Ref Frames
Format settings, CABAC : Yes
Format settings, ReFrames : 4 frames
Codec ID : V_MPEG4/ISO/AVC
Duration : 1 h 43 min
Bit rate : 7 116 kb/s
Width : 1 920 pixels
Height : 816 pixels
Display aspect ratio : 2.35:1
Frame rate mode : Constant
Frame rate : 23.976 (24000/1001) FPS
Color space : YUV
Chroma subsampling : 4:2:0
Bit depth : 8 bits
Scan type : Progressive
Bits/(Pixel*Frame) : 0.189
Stream size : 5.01 GiB (79%)
Writing library : core 148 r2638 7599210
Encoding settings : cabac=1 / ref=5 / deblock=1:-1:-1 / analyse=0x3:0x113 / me=umh / subme=8 / psy=1 / psy_rd=1.00:0.00 / mixed_ref=1 / me_range=24 / chroma_me=1 / trellis=2 / 8x8dct=1 / cqm=2 / deadzone=21,11 / fast_pskip=1 / chroma_qp_offset=-5 / threads=6 / lookahead_threads=1 / sliced_threads=0 / nr=0 / decimate=0 / interlaced=0 / bluray_compat=0 / constrained_intra=0 / bframes=5 / b_pyramid=1 / b_adapt=2 / b_bias=2 / direct=3 / weightb=1 / open_gop=0 / weightp=2 / keyint=230 / keyint_min=22 / scenecut=40 / intra_refresh=0 / rc_lookahead=45 / rc=2pass / mbtree=1 / bitrate=7116 / ratetol=1.0 / qcomp=0.60 / qpmin=10 / qpmax=41 / qpstep=4 / cplxblur=20.0 / qblur=0.5 / ip_ratio=1.30 / aq=1:1.00
Language : English
Default : Yes
Forced : No

Audio #1
ID : 2
Format : AC-3
Format/Info : Audio Coding 3
Codec ID : A_AC3
Duration : 1 h 43 min
Bit rate mode : Constant
Bit rate : 192 kb/s
Channel(s) : 2 channels
Channel positions : Front: L R
Sampling rate : 48.0 kHz
Frame rate : 31.250 FPS (1536 SPF)
Bit depth : 16 bits
Compression mode : Lossy
Stream size : 142 MiB (2%)
Title : UKR (TET)
Language : Ukrainian
Service kind : Complete Main
Default : Yes
Forced : Yes

Audio #2
ID : 3
Format :
Format/Info : Digital Theater Systems
Codec ID : A_DTS
Duration : 1 h 43 min
Bit rate mode : Constant
Bit rate : 1 509 kb/s
Channel(s) : 6 channels
Channel positions : Front: L C R, Side: L R, LFE
Sampling rate : 48.0 kHz
Frame rate : 93.750 FPS (512 SPF)
Bit depth : 24 bits
Compression mode : Lossy
Stream size : 1.09 GiB (17%)
Language : English
Default : No
Forced : No

Text
ID : 4
Format : UTF-8
Codec ID : S_TEXT/UTF8
Codec ID/Info : UTF-8 Plain Text
Language : English
Default : Yes
Forced : No

Menu
00:00:00.000 : en:Fenway
00:02:28.315 : en:Main Titles/Numbers
00:05:49.808 : en:Juiced
00:08:32.887 : en:A Schoolteacher?
00:11:35.320 : en:First Date
00:17:26.170 : en:Sea Gull
00:20:02.243 : en:Interrogation
00:23:22.234 : en:The Season Approaches
00:26:02.394 : en:Time to Confess
00:31:04.404 : en:Not on TV
00:33:49.486 : en:Dancing for Tickets
00:38:17.921 : en:Opening Day
00:44:47.184 : en:Meet the Parents
00:48:32.284 : en:Spring Into Summer
00:52:08.625 : en:Beanded
00:56:52.701 : en:Gay Paree
01:04:17.520 : en:Who Loves You?
01:07:56.072 : en:Gatsby's Birthday
01:10:47.827 : en:The Greatest Game Ever
01:15:05.209 : en:Bulletproof
01:18:40.049 : en:The Playoffs
01:21:00.647 : en:Winter Guy, Summer Guy
01:25:09.438 : en:Making History
01:31:11.383 : en:World Champs/End Titles
Скріншоти








За українську доріжку подяка п.: karvai0, pyatachok
Особиста подяка пану denixx за надану матеріальну допомогу на підтримку цього і майбутніх релізів.
Джерело:


 Трекер:    Зареєстрований   

Завантажити / скачати фільм українською



відео для новачків



 Зареєстрований:   2018-08-25 06:35
 Розмір:   6.36 GB 
 Оцінка фільму:   -/10 (Голосів: 0)
   
Інші релізи
Ваш часовий пояс: GMT + 2 Години

Нова тема   Відповісти