Кешбек / Решта / Cashback (2006) mini 1080p H.265 Ukr/Eng | Sub Eng

Нові коментарі

Нова тема   Відповісти
Автор Повідомлення
Anonymous 







2018-08-25 00:46  
Кешбек / Решта / Cashback (2006) mini 1080p H.265 Ukr/Eng | Sub Eng

Кешбек / Решта / Cashback (2006) mini 1080p H.265 Ukr/Eng | Sub Eng


Жанр: мелодрама, комедія, еротика
Країна: Великобританія
Кінокомпанія: Left Turn Films, Lipsync Productions, MEDIA Programme of the European Union, Ugly Duckling Films
Режисер: Шон Елліс
Актори: Шон Біггерстаф, Емілія Фокс, Стюарт Гудвін, Майкл Лембурн, Майкл Діксон, Мішель Райан, Еріка Елліс та інші.

Сюжет:
Переживаючи хворобливе розставання з коханою, Бен впадає в безсоння. У вільні 8 годин він починає працювати в нічну зміну в місцевому супермаркеті, де головним завданням обслуговуючого персоналу є «вбити час». Несподівано Бен виявляє в собі незвичайну здатність зупиняти час, що дає поштовх його художньому таланту.

Тривалість: 01:42:03
Якість:

Відео:
кодек: H.265 (HEVC)
розмір кадру: 1920 х 1080
бітрейт: 2 978 кб/с
бітова глибина: 10 біт
Увага! Перед завантаженням переконайтесь, що ваш пристрій відтворення (та/або ПЗ) підтримує H.265 (HEVC)

Аудіо # 1:
мова: українська
переклад: багатоголосий закадровий | AniUA
кодек: 5.1
бітрейт: 1 509 кб/с

Аудіо # 2:
мова: англійська
переклад: оригінал
кодек: 5.1
бітрейт: 448 кб/с

Субтитри # 1-2:
мова: англійська
тип: програмні (м'які)
формат: *.srt
Info
Код:
General
Unique ID                                : 137058005909895800769637699726602473423 (0x671C6969C204187DAE029CF83BE50FCF)
Complete name                            : F:\Video\Cashback (2006) 1080p H.265 [UKR_ENG].
Format                                   :
Format version                           : Version 4 / Version 2
File size                                : 3.52 GiB
Duration                                 : 1 h 42 min
Overall bit rate                         : 4 936 kb/s
Movie name                               : Cashback (2006)
Encoded date                             : UTC 2018-08-24 22:38:46
Writing application                      : v20.0.0 ('I Am The Sun') 32-bit
Writing library                          : libebml v1.3.5 + v1.4.8
Cover                                    : Yes
Attachments                              : Cover.jpg

Video
ID                                       : 1
Format                                   : HEVC
Format/Info                              : High Efficiency Video Coding
Format profile                           : Main [email protected]@Main
Codec ID                                 : V_MPEGH/ISO/HEVC
Duration                                 : 1 h 42 min
Bit rate                                 : 2 978 kb/s
Width                                    : 1 920 pixels
Height                                   : 1 080 pixels
Display aspect ratio                     : 16:9
Frame rate mode                          : Constant
Frame rate                               : 23.976 (24000/1001) FPS
Color space                              : YUV
Chroma subsampling                       : 4:2:0
Bit depth                                : 10 bits
Bits/(Pixel*Frame)                       : 0.060
Stream size                              : 2.12 GiB (60%)
Writing library                          : x265 1.9+3-548a45bbf223:[Windows][MSVC 1900][64 bit] 10bit
Encoding settings                        : wpp / ctu=64 / min-cu-size=8 / max-tu-size=32 / tu-intra-depth=1 / tu-inter-depth=1 / me=3 / subme=3 / merange=57 / no-rect / no-amp / max-merge=3 / temporal-mvp / no-early-skip / rdpenalty=0 / no-tskip / no-tskip-fast / strong-intra-smoothing / no-lossless / no-cu-lossless / no-constrained-intra / no-fast-intra / open-gop / no-temporal-layers / interlace=0 / keyint=250 / min-keyint=23 / scenecut=40 / rc-lookahead=25 / lookahead-slices=4 / bframes=8 / bframe-bias=0 / b-adapt=2 / ref=4 / limit-refs=3 / limit-modes / weightp / no-weightb / aq-mode=3 / qg-size=32 / aq-strength=1.00 / cbqpoffs=0 / crqpoffs=0 / rd=4 / psy-rd=0.50 / rdoq-level=2 / psy-rdoq=10.00 / no-rd-refine / signhide / deblock=-1:-1 / sao / no-sao-non-deblock / b-pyramid / cutree / no-intra-refresh / rc=crf / crf=22.0 / qcomp=0.60 / qpmin=0 / qpmax=51 / qpstep=4 / ipratio=1.40 / pbratio=1.30
Language                                 : English
Default                                  : Yes
Forced                                   : No

Audio #1
ID                                       : 2
Format                                   :
Format/Info                              : Digital Theater Systems
Codec ID                                 : A_DTS
Duration                                 : 1 h 42 min
Bit rate mode                            : Constant
Bit rate                                 : 1 506 kb/s
Channel(s)                               : 6 channels
Channel positions                        : Front: L C R, Side: L R, LFE
Sampling rate                            : 48.0 kHz
Frame rate                               : 93.750 FPS (512 SPF)
Bit depth                                : 16 bits
Compression mode                         : Lossy
Stream size                              : 1.07 GiB (31%)
Title                                    : AniUA
Language                                 : Ukrainian
Default                                  : Yes
Forced                                   : Yes

Audio #2
ID                                       : 3
Format                                   :
Format/Info                              : Advanced Audio Codec
Format profile                           : LC
Codec ID                                 : A_AAC-2
Duration                                 : 1 h 42 min
Bit rate                                 : 448 kb/s
Channel(s)                               : 6 channels
Channel positions                        : Front: L C R, Side: L R, LFE
Sampling rate                            : 96.0 kHz
Frame rate                               : 93.750 FPS (1024 SPF)
Compression mode                         : Lossy
Delay relative to video                  : 5 ms
Stream size                              : 327 MiB (9%)
Title                                    : Original
Language                                 : English
Default                                  : No
Forced                                   : No

Text #1
ID                                       : 4
Format                                   : UTF-8
Codec ID                                 : S_TEXT/UTF8
Codec ID/Info                            : UTF-8 Plain Text
Duration                                 : 1 h 37 min
Bit rate                                 : 50 b/s
Count of elements                        : 1054
Stream size                              : 36.0 KiB (0%)
Title                                    : English
Language                                 : English
Default                                  : No
Forced                                   : No

Text #2
ID                                       : 5
Format                                   : UTF-8
Codec ID                                 : S_TEXT/UTF8
Codec ID/Info                            : UTF-8 Plain Text
Duration                                 : 1 h 37 min
Bit rate                                 : 53 b/s
Count of elements                        : 1141
Stream size                              : 38.0 KiB (0%)
Title                                    : English-SDH
Language                                 : English
Default                                  : No
Forced                                   : No

Menu
00:00:00.000                             : en:Chapter 1
00:01:20.747                             : en:Chapter 2
00:04:24.639                             : en:Chapter 3
00:10:39.973                             : en:Chapter 4
00:13:39.152                             : en:Chapter 5
00:16:52.678                             : en:Chapter 6
00:21:46.305                             : en:Chapter 7
00:25:01.500                             : en:Chapter 8
00:29:24.763                             : en:Chapter 9
00:32:43.503                             : en:Chapter 10
00:34:31.236                             : en:Chapter 11
00:40:06.362                             : en:Chapter 12
00:44:31.419                             : en:Chapter 13
00:47:32.308                             : en:Chapter 14
00:55:26.823                             : en:Chapter 15
00:58:53.780                             : en:Chapter 16
01:03:36.229                             : en:Chapter 17
01:11:02.467                             : en:Chapter 18
01:13:21.355                             : en:Chapter 19
01:17:19.802                             : en:Chapter 20
01:21:34.973                             : en:Chapter 21
01:28:49.908                             : en:Chapter 22
01:30:38.683                             : en:Chapter 23
01:35:57.752                             : en:Chapter 24
Скріншоти




Джерело: &
Особиста оцінка: 10 - без зайвих вагань рекомендую всім!


Авторський реліз (завантажувати можна без реєстрації)
 Трекер:    Зареєстрований   

Завантажити / скачати фільм українською



відео для новачків



 Зареєстрований:   2018-08-25 00:46
 Розмір:   3.52 GB 
 Оцінка фільму:   9.4/10 (Голосів: 8)
   
Інші релізи
   Кешбек / Решта / Cashback (2006) AVC Ukr/Eng | Sub Ukr/Eng [JPN Transfer] -Star-Lord-  26 / 0   3.02 GB   2021-01-05 18:40 
   Кешбек / Решта / Cashback (2006) 1080p Ukr/Eng | Sub Eng IronBee  0 / 0   13.88 GB   2018-09-03 19:25 
   Кешбек / Решта / Cashback (2006) Ukr/Eng Arch Enemy  10 / 0   2.18 GB   2018-08-24 17:55 
   Кешбек / Решта / Cashback (2006) 720p Ukr/Eng | Sub Eng Arch Enemy  3 / 0   7.58 GB   2018-08-21 18:20 
   Кешбек / Решта / Cashback (2006) Eng | sub Ukr/Eng The_Marlboro  6 / 0   1.86 GB   2017-01-29 14:53 
Ваш часовий пояс: GMT + 2 Години

Нова тема   Відповісти