Різники [Розширена версія] / Repo Men [Unrated] (2010) 1080p H.265 Ukr/Eng | Sub Ukr/Eng

Нові коментарі

Нова тема   Відповісти
Автор Повідомлення
Anonymous 







2018-08-25 00:25  
Різники [Розширена версія] / Repo Men [Unrated] (2010) 1080p H.265 Ukr/Eng | Sub Ukr/Eng

Різники [Розширена версія] / Repo Men [Unrated] (2010) 1080p H.265 Ukr/Eng | Sub Ukr/Eng


Жанр: екшн, кримінальний, фантастика, трилер
Країна: США, Канада



Кінокомпанія: Universal Pictures, Relativity Media, Stuber Productions
Режисер: Міґель Сапочнік / Miguel Sapochnik
Актори: Джуд Лоу / Jude Law, Форест Вітакер / Forest Whitaker, Алісі Браґа / Alice Braga, Лів Шрайбер / Liev Schreiber, Керіс Ван Гоутен / Carice van Houten, Чандлер Кентербері / Chandler Canterbury, Джо Пінґ / Joe Pingue та інші

Сюжет:
У недалекому майбутньому штучні органи будуть доступні усім і навіть в кредит. Якщо ж людина не в змозі сплатити борг, то вживаються украй жорсткі заходи. Одного разу до такого клієнта в будинок може вломитися різник, який здатний подавити будь-який опір і повинен вилучити з нього штучний орган, власність компанії Union. Ремі якраз такий - і мисливець, і жертва - він різник, і він же не може сплатити пересадку серця, а тому вимушений тікати...


Тривалість: 01:59:36
Якість:
Відео:
кодек: H.265 (HEVC)
розмір кадру: 1920 х 816
бітрейт: 5 238 кб/с
бітова глибина: 10 біт
Увага! Перед завантаженням переконайтесь, що ваш пристрій відтворення (та/або ПЗ) підтримує H.265 (HEVC)

Аудіо # 1:
мова: українська
переклад: багатоголосий закадровий
кодек: 2.0
бітрейт: 192 кб/с

Аудіо # 2:
мова: англійська
переклад: оригінал
кодек: 2.0
бітрейт: 192 кб/с

Субтитри # 1:
мова: українська
тип: програмні (м'які)
формат: *.srt

Субтитри # 2:
мова: англійська
тип: програмні (м'які)
формат: *.srt
Info
Код:
General
Unique ID                                : 161511802653915091244365561606757587140 (0x79820AAD86F134C02FC44F7E9B7E98C4)
Complete name                            : F:\Video\Repo Men [Unrated] (2010) 1080p H.265 [UKR_ENG].
Format                                   :
Format version                           : Version 4 / Version 2
File size                                : 4.70 GiB
Duration                                 : 1 h 59 min
Overall bit rate                         : 5 624 kb/s
Movie name                               : Repo Men [Unrated] (2010)
Encoded date                             : UTC 2018-08-22 08:16:23
Writing application                      : v20.0.0 ('I Am The Sun') 32-bit
Writing library                          : libebml v1.3.5 + v1.4.8
Cover                                    : Yes
Attachments                              : Cover.jpg

Video
ID                                       : 1
Format                                   : HEVC
Format/Info                              : High Efficiency Video Coding
Format profile                           : Main [email protected]@High
Codec ID                                 : V_MPEGH/ISO/HEVC
Duration                                 : 1 h 59 min
Bit rate                                 : 5 238 kb/s
Width                                    : 1 920 pixels
Height                                   : 816 pixels
Display aspect ratio                     : 2.35:1
Frame rate mode                          : Constant
Frame rate                               : 23.976 (24000/1001) FPS
Color space                              : YUV
Chroma subsampling                       : 4:2:0
Bit depth                                : 10 bits
Bits/(Pixel*Frame)                       : 0.139
Stream size                              : 4.38 GiB (93%)
Writing library                          : x265 2.5+6-d11482e5fedb:[Windows][GCC 7.1.0][64 bit] 10bit
Encoding settings                        : cpuid=1173503 / frame-threads=4 / numa-pools=16 / wpp / no-pmode / no-pme / no-psnr / no-ssim / log-level=2 / input-csp=1 / input-res=1920x816 / interlace=0 / total-frames=0 / level-idc=51 / high-tier=1 / uhd-bd=0 / ref=5 / no-allow-non-conformance / no-repeat-headers / annexb / no-aud / no-hrd / info / hash=0 / no-temporal-layers / open-gop / min-keyint=23 / keyint=240 / bframes=8 / b-adapt=2 / no-b-pyramid / bframe-bias=0 / rc-lookahead=60 / lookahead-slices=4 / scenecut=40 / no-intra-refresh / ctu=64 / min-cu-size=8 / rect / no-amp / max-tu-size=32 / tu-inter-depth=4 / tu-intra-depth=4 / limit-tu=4 / rdoq-level=1 / dynamic-rd=0.00 / no-ssim-rd / signhide / no-tskip / nr-intra=0 / nr-inter=0 / no-constrained-intra / no-strong-intra-smoothing / max-merge=3 / limit-refs=3 / limit-modes / me=2 / subme=7 / merange=92 / temporal-mvp / weightp / weightb / no-analyze-src-pics / deblock=-3:-3 / no-sao / no-sao-non-deblock / rd=4 / no-early-skip / rskip / no-fast-intra / no-tskip-fast / no-cu-lossless / no-b-intra / rdpenalty=0 / psy-rd=2.00 / psy-rdoq=2.00 / no-rd-refine / analysis-reuse-mode=0 / no-lossless / cbqpoffs=0 / crqpoffs=0 / rc=crf / crf=19.5 / qcomp=0.70 / qpstep=4 / stats-write=0 / stats-read=0 / vbv-maxrate=160000 / vbv-bufsize=160000 / vbv-init=0.9 / crf-max=0.0 / crf-min=0.0 / ipratio=1.20 / pbratio=1.30 / aq-mode=1 / aq-strength=0.50 / cutree / zone-count=1 / zones: / start-frame=163024 / end-frame=172072 / qp=35 / no-strict-cbr / qg-size=32 / no-rc-grain / qpmax=69 / qpmin=0 / no-const-vbv / sar=0 / overscan=0 / videoformat=5 / range=0 / colorprim=2 / transfer=2 / colormatrix=1 / chromaloc=0 / display-window=0 / max-cll=0,0 / min-luma=0 / max-luma=1023 / log2-max-poc-lsb=8 / vui-timing-info / vui-hrd-info / slices=1 / opt-qp-pps / opt-ref-list-length-pps / no-multi-pass-opt-rps / scenecut-bias=0.05 / no-opt-cu-delta-qp / no-aq-motion / no-hdr / no-hdr-opt / no-dhdr10-opt / analysis-reuse-level=5 / scale-factor=0 / refine-intra=0 / refine-inter=0 / refine-mv=0 / no-limit-sao / ctu-info=0
Default                                  : Yes
Forced                                   : Yes
Color range                              : Limited
Matrix coefficients                      : BT.709

Audio #1
ID                                       : 2
Format                                   : AC-3
Format/Info                              : Audio Coding 3
Codec ID                                 : A_AC3
Duration                                 : 1 h 59 min
Bit rate mode                            : Constant
Bit rate                                 : 192 kb/s
Channel(s)                               : 2 channels
Channel positions                        : Front: L R
Sampling rate                            : 48.0 kHz
Frame rate                               : 31.250 FPS (1536 SPF)
Bit depth                                : 16 bits
Compression mode                         : Lossy
Stream size                              : 164 MiB (3%)
Title                                    : Kanal Ukraina
Language                                 : Ukrainian
Service kind                             : Complete Main
Default                                  : Yes
Forced                                   : No

Audio #2
ID                                       : 3
Format                                   : AC-3
Format/Info                              : Audio Coding 3
Codec ID                                 : A_AC3
Duration                                 : 1 h 59 min
Bit rate mode                            : Constant
Bit rate                                 : 192 kb/s
Channel(s)                               : 2 channels
Channel positions                        : Front: L R
Sampling rate                            : 48.0 kHz
Frame rate                               : 31.250 FPS (1536 SPF)
Bit depth                                : 16 bits
Compression mode                         : Lossy
Stream size                              : 164 MiB (3%)
Title                                    : Original
Language                                 : English
Service kind                             : Complete Main
Default                                  : No
Forced                                   : No

Text #1
ID                                       : 4
Format                                   : UTF-8
Codec ID                                 : S_TEXT/UTF8
Codec ID/Info                            : UTF-8 Plain Text
Duration                                 : 1 h 59 min
Bit rate                                 : 71 b/s
Count of elements                        : 1232
Stream size                              : 62.6 KiB (0%)
Language                                 : Ukrainian
Default                                  : Yes
Forced                                   : No

Text #2
ID                                       : 5
Format                                   : UTF-8
Codec ID                                 : S_TEXT/UTF8
Codec ID/Info                            : UTF-8 Plain Text
Duration                                 : 1 h 59 min
Bit rate                                 : 53 b/s
Count of elements                        : 1495
Stream size                              : 46.7 KiB (0%)
Language                                 : English
Default                                  : No
Forced                                   : No

Menu
00:00:00.000                             : :Глава 1
00:05:25.659                             : :Глава 2
00:11:04.080                             : :Глава 3
00:17:51.654                             : :Глава 4
00:24:19.541                             : :Глава 5
00:27:57.259                             : :Глава 6
00:32:25.068                             : :Глава 7
00:41:45.503                             : :Глава 8
00:48:22.858                             : :Глава 9
00:52:38.906                             : :Глава 10
00:56:50.157                             : :Глава 11
01:02:16.691                             : :Глава 12
01:06:25.481                             : :Глава 13
01:11:15.313                             : :Глава 14
01:21:25.839                             : :Глава 15
01:27:19.024                             : :Глава 16
01:34:07.809                             : :Глава 17
01:40:56.050                             : :Глава 18
01:49:25.016                             : :Глава 19
01:53:19.459                             : :Глава 20
Скріншоти





Джерело:
Особиста оцінка: 0 - не дивився
ЗАЛИШАЙТЕСЬ ЯКОМОГА ДОВШЕ НА РОЗДАЧІ!
ЗАВАНТАЖИВ САМ - ДАЙ ЗАВАНТАЖИТИ ІНШИМ


 Трекер:    Зареєстрований   

Завантажити / скачати фільм українською



відео для новачків



 Зареєстрований:   2018-08-25 00:25
 Розмір:   4.7 GB 
 Оцінка фільму:   7.7/10 (Голосів: 3)
   
Ваш часовий пояс: GMT + 2 Години

Нова тема   Відповісти