Звичайні підозрювані / Підозрілі особи / The Usual Suspects (1995) 1080p H.265 2xUkr/Eng | Sub Ukr/Eng

Нові коментарі

Нова тема   Відповісти
Автор Повідомлення
Anonymous 







2018-08-24 23:51  
Звичайні підозрювані / Підозрілі особи / The Usual Suspects (1995) 1080p H.265 2xUkr/Eng | Sub Ukr/Eng

Звичайні підозрювані / Підозрілі особи / The Usual Suspects (1995) 1080p H.265 2xUkr/Eng | Sub Ukr/Eng


Жанр: трилер, драма, кримінальний
Країна: США, Німеччина
Кінокомпанія: PolyGram Filmed Entertainment, Spelling Films International, Blue Parrot, Bad Hat Harry Productions, Rosco Film GmbH
Режисер: Брайян Сінґер / Bryan Singer
Актори: Стівен Болдвін / Stephen Baldwin, Ґебріель Бірн / Gabriel Byrne, Бенісіо Дель Торо / Benicio Del Toro, Кевін Поллак / Kevin Pollak, Кевін Спейсі / Kevin Spacey, Чазз Пальмінтері / Chazz Palminteri, Піт Постлейтвейт / Pete Postlethwaite, Джанкарло Еспозіто / Giancarlo Esposito, Сюзі Ейміс / Suzy Amis, Дан Гедая / Dan Hedaya

Сюжет:
Зазвичай, якщо є злочин, є мотив. Зазвичай, якщо проводиться впізнання, принаймні є один підозрюваний. Але це не було звичайним злочином. П'ятеро злочинців зіткнулися в одному незвичайному місці і вирішили прокрутити одну справу. Але хтось сильніший і могутніший, хтось, чиє ім'я лякає всіх злочинців світу, хоче, щоб вони попрацювали на нього.

Це не було звичайним злочином, і вони — не просто звичайні підозрювані.

Тривалість: 01:46:05
Якість:

Відео:
кодек: H.265 (HEVC)
розмір кадру: 1920 x 816
бітрейт: 5 046 кб/с
бітова глибина: 10 біт

Увага! Перед завантаженням переконайтесь, що ваш пристрій відтворення (та/або ПЗ) підтримує H.265 (HEVC)

Аудіо # 1:
мова: українська
переклад: двоголосий закадровий
кодек: AC-3 2.0
бітрейт: 192 кб/с

Аудіо # 2:
мова: українська
переклад: багатоголосий закадровий
кодек: AC-3 2.0
бітрейт: 192 кб/с

Аудіо # 3:
мова: англійська
переклад: оригінал
кодек: 5.1
бітрейт: 1510 кб/с

Субтитри # 1: (Full from Netflix)
мова: українська
тип: програмні (м'які)
формат: *.srt

Субтитри # 2: (Full)
мова: англійська
тип: програмні (м'які)
формат: *.srt


Info
Код:
General
Unique ID                                : 38119000352747482750138199957227697268 (0x1CAD73D1FD7EBDA4D236A82C59BFF474)
Complete name                            : The Usual Suspects (1995) 1080p H.265 [2xUKR_ENG] [Hurtom].
Format                                   :
Format version                           : Version 4
File size                                : 5.14 GiB
Duration                                 : 1 h 46 min
Overall bit rate                         : 6 942 kb/s
Movie name                               : Звичайні підозрювані / Підозрілі особи / The Usual Suspects (1995)
Encoded date                             : UTC 2020-08-21 18:39:50
Writing application                      : v20.0.0 ('I Am The Sun') 64-bit
Writing library                          : libebml v1.3.5 + v1.4.8
Cover                                    : Yes
Attachments                              : Cover.jpg

Video
ID                                       : 1
Format                                   : HEVC
Format/Info                              : High Efficiency Video Coding
Format profile                           : Main [email protected]@High
Codec ID                                 : V_MPEGH/ISO/HEVC
Duration                                 : 1 h 46 min
Bit rate                                 : 5 046 kb/s
Width                                    : 1 920 pixels
Height                                   : 816 pixels
Display aspect ratio                     : 2.35:1
Frame rate mode                          : Constant
Frame rate                               : 23.976 (24000/1001) FPS
Color space                              : YUV
Chroma subsampling                       : 4:2:0
Bit depth                                : 10 bits
Bits/(Pixel*Frame)                       : 0.134
Stream size                              : 3.74 GiB (73%)
Title                                    : Звичайні підозрювані / Підозрілі особи / The Usual Suspects (1995)
Writing library                          : x265 2.6+32-b763c22920f6:[Windows][MSVC 1900][64 bit] 10bit
Encoding settings                        : cpuid=1173503 / frame-threads=4 / numa-pools=16 / wpp / no-pmode / no-pme / no-psnr / no-ssim / log-level=2 / input-csp=1 / input-res=1920x816 / interlace=0 / total-frames=152611 / level-idc=41 / high-tier=1 / uhd-bd=0 / ref=5 / no-allow-non-conformance / no-repeat-headers / annexb / no-aud / no-hrd / info / hash=0 / no-temporal-layers / open-gop / min-keyint=23 / keyint=240 / gop-lookahead=0 / bframes=8 / b-adapt=2 / no-b-pyramid / bframe-bias=0 / rc-lookahead=40 / lookahead-slices=4 / scenecut=40 / radl=0 / no-intra-refresh / ctu=64 / min-cu-size=8 / rect / amp / max-tu-size=32 / tu-inter-depth=4 / tu-intra-depth=4 / limit-tu=1 / rdoq-level=2 / dynamic-rd=0.00 / no-ssim-rd / signhide / no-tskip / nr-intra=0 / nr-inter=0 / no-constrained-intra / no-strong-intra-smoothing / max-merge=3 / limit-refs=2 / limit-modes / me=3 / subme=7 / merange=57 / temporal-mvp / weightp / weightb / no-analyze-src-pics / deblock=-3:-3 / no-sao / no-sao-non-deblock / rd=6 / no-early-skip / rskip / no-fast-intra / no-tskip-fast / no-cu-lossless / b-intra / no-splitrd-skip / rdpenalty=0 / psy-rd=2.00 / psy-rdoq=1.00 / no-rd-refine / no-lossless / cbqpoffs=-2 / crqpoffs=-2 / rc=crf / crf=18.0 / qcomp=0.60 / qpstep=4 / stats-write=0 / stats-read=0 / vbv-maxrate=50000 / vbv-bufsize=50000 / vbv-init=0.9 / crf-max=0.0 / crf-min=0.0 / ipratio=1.40 / pbratio=1.30 / aq-mode=1 / aq-strength=1.00 / cutree / zone-count=1 / zones: / start-frame=147486 / end-frame=152611 / qp=35 / no-strict-cbr / qg-size=32 / no-rc-grain / qpmax=69 / qpmin=0 / no-const-vbv / sar=1 / overscan=0 / videoformat=5 / range=0 / colorprim=2 / transfer=2 / colormatrix=2 / chromaloc=0 / display-window=0 / max-cll=0,0 / min-luma=0 / max-luma=1023 / log2-max-poc-lsb=8 / vui-timing-info / vui-hrd-info / slices=1 / no-opt-qp-pps / no-opt-ref-list-length-pps / no-multi-pass-opt-rps / scenecut-bias=0.05 / no-opt-cu-delta-qp / no-aq-motion / no-hdr / no-hdr-opt / no-dhdr10-opt / analysis-reuse-level=5 / scale-factor=0 / refine-intra=0 / refine-inter=0 / refine-mv=0 / no-limit-sao / ctu-info=0 / no-lowpass-dct / refine-mv-type=0 / copy-pic=1
Default                                  : Yes
Forced                                   : No

Audio #1
ID                                       : 2
Format                                   : AC-3
Format/Info                              : Audio Coding 3
Commercial name                          : Dolby Digital
Codec ID                                 : A_AC3
Duration                                 : 1 h 46 min
Bit rate mode                            : Constant
Bit rate                                 : 192 kb/s
Channel(s)                               : 2 channels
Channel layout                           : L R
Sampling rate                            : 48.0 kHz
Frame rate                               : 31.250 FPS (1536 SPF)
Compression mode                         : Lossy
Delay relative to video                  : 19 ms
Stream size                              : 146 MiB (3%)
Title                                    : / 2.0 Ch / 192 kbps / DVO / 1+1
Language                                 : Ukrainian
Service kind                             : Complete Main
Default                                  : Yes
Forced                                   : Yes

Audio #2
ID                                       : 3
Format                                   : AC-3
Format/Info                              : Audio Coding 3
Commercial name                          : Dolby Digital
Codec ID                                 : A_AC3
Duration                                 : 1 h 46 min
Bit rate mode                            : Constant
Bit rate                                 : 192 kb/s
Channel(s)                               : 2 channels
Channel layout                           : L R
Sampling rate                            : 48.0 kHz
Frame rate                               : 31.250 FPS (1536 SPF)
Compression mode                         : Lossy
Delay relative to video                  : 10 ms
Stream size                              : 146 MiB (3%)
Title                                    : / 2.0 Ch / 192 kbps / MVO / Inter
Language                                 : Ukrainian
Service kind                             : Complete Main
Default                                  : No
Forced                                   : No

Audio #3
ID                                       : 4
Format                                   :
Format/Info                              : Digital Theater Systems
Codec ID                                 : A_DTS
Duration                                 : 1 h 46 min
Bit rate mode                            : Constant
Bit rate                                 : 1 509 kb/s
Channel(s)                               : 6 channels
Channel layout                           : C L R Ls Rs LFE
Sampling rate                            : 48.0 kHz
Frame rate                               : 93.750 FPS (512 SPF)
Bit depth                                : 24 bits
Compression mode                         : Lossy
Stream size                              : 1.12 GiB (22%)
Title                                    : / 5.1 Ch / 1509 kbps / Original
Language                                 : English
Default                                  : No
Forced                                   : No

Text #1
ID                                       : 5
Format                                   : UTF-8
Codec ID                                 : S_TEXT/UTF8
Codec ID/Info                            : UTF-8 Plain Text
Duration                                 : 1 h 42 min
Bit rate                                 : 100 b/s
Count of elements                        : 1274
Stream size                              : 75.5 KiB (0%)
Title                                    : Full from Netflix
Language                                 : Ukrainian
Default                                  : No
Forced                                   : No

Text #2
ID                                       : 6
Format                                   : UTF-8
Codec ID                                 : S_TEXT/UTF8
Codec ID/Info                            : UTF-8 Plain Text
Duration                                 : 1 h 38 min
Bit rate                                 : 77 b/s
Count of elements                        : 1470
Stream size                              : 56.4 KiB (0%)
Title                                    : Eng full
Language                                 : English
Default                                  : No
Forced                                   : No

Menu
00:00:00.000                             : en:Main Title
00:02:17.846                             : en:The Last Smoke
00:05:11.644                             : en:Rounding Up...
00:08:02.732                             : en:...the Usual Suspects
00:12:06.058                             : en:Five Guys in a Room
00:16:56.056                             : en:Two Survivors
00:18:00.079                             : en:Not an Interrogation
00:20:20.510                             : en:Hungarian Burn Victim
00:21:56.064                             : en:"I'm Smarter Than You"
00:26:03.478                             : en:After the Lineup
00:28:27.414                             : en:Convincing Keaton
00:31:20.461                             : en:Ny's Finest Taxi Service
00:34:47.043                             : en:The Fence in California
00:37:28.246                             : en:"Dean Keaton Was Dead"
00:39:37.958                             : en:He Saw the Devil
00:41:26.859                             : en:"There Was a Lawyer..."
00:43:07.209                             : en:Redfoot Makes an Offer
00:46:15.439                             : en:Bad Day for a Heist
00:50:39.661                             : en:"Who's Keyser Soze?"
00:51:56.321                             : en:Kobayashi
00:57:01.709                             : en:"a Gift From Mr. Soze"
00:59:13.258                             : en:One Day in Turkey
01:04:44.213                             : en:Finding Fenster
01:07:07.273                             : en:No Threat to Kobayashi
01:13:08.717                             : en:A Logistical Nightmare
01:14:18.036                             : en:Ready, Set, Shoot
01:22:31.738                             : en:A Rat Naming Names
01:23:37.804                             : en:No-Dope Boat
01:28:40.940                             : en:And Then There Was One
01:32:39.178                             : en:"He Was My Friend!"
01:37:55.744                             : en:The Writing on the Wall
01:42:39.528                             : en:End Credits
01:46:03.815                             : en:01:46:03.815
Світлини




Джерело: &
Особиста оцінка: 0 - не дивився

Подяка пану leicheman за надані укр. субтитри


Срібний реліз (на рейтинг впливає 50% завантаженого)
 Трекер:    Зареєстрований   

Завантажити / скачати фільм українською



відео для новачків



 Зареєстрований:   2020-08-21 21:45
 Розмір:   5.14 GB 
 Оцінка фільму:   9.1/10 (Голосів: 8)
   
Ваш часовий пояс: GMT + 2 Години

Нова тема   Відповісти