Кешбек / Решта / Cashback (2006) Ukr/Eng

Нові коментарі

Нова тема   Відповісти
Автор Повідомлення
Arch Enemy 
Відео Гуртом - озвучення
Відео Гуртом - озвучення


З нами з: 30.08.12
Востаннє: 20.04.19
Повідомлень: 1640

2018-08-24 18:55  
Кешбек / Решта / Cashback (2006) Ukr/Eng


альтернативний постер

Вікове обмеження: 18+
Жанр: мелодрама, комедія, еротика
Країна: Великобританія
Прем'єра: 18.05.2006



Кінокомпанія: Left Turn Films, Lipsync Productions, MEDIA Programme of the European Union, Ugly Duckling Films
Режисер: Шон Елліс
Актори: Шон Біггерстаф, Емілія Фокс, Стюарт Гудвін, Майкл Лембурн, Майкл Діксон, Мішель Райан, Еріка Елліс та інші.

Сюжет:
Переживаючи хворобливе розставання з коханою, Бен впадає в безсоння. У вільні 8 годин він починає працювати в нічну зміну в місцевому супермаркеті, де головним завданням обслуговуючого персоналу є «вбити час». Несподівано Бен виявляє в собі незвичайну здатність зупиняти час, що дає поштовх його художньому таланту.

Тривалість: 01:42:03
Якість: (HQClub)
Відео:
контейнер: avi
кодек:
частота кадрів: 23.976 кадрів/сек.
розмір кадру: 720х304 пікс.
бітрейт: ~2150 кбіт/сек.

Аудіо # 1:
мова: українська
озвучення: багатоголосе закадрове
кодек: 5.1
бітрейт: 448 кбіт/сек.

Аудіо # 2:
мова: англійська, оригінал
кодек: 5.1
бітрейт: 448 кбіт/сек.
Скріншоти
MI
General
Complete name : E:\Films\Cashback.2006..avi
Format : AVI
Format/Info : Audio Video Interleave
Format profile : OpenDML
File size : 2.18 GiB
Duration : 1 h 42 min
Overall bit rate : 3 062 kb/s
Writing application : VirtualDubMod 1.5.10.2 (build 2540/release)
Writing library : VirtualDubMod build 2540/release

Video
ID : 0
Format : MPEG-4 Visual
Format profile : Advanced [email protected]
Format settings : BVOP1 / Custom Matrix
Format settings, BVOP : 1
Format settings, QPel : No
Format settings, GMC : No warppoints
Format settings, Matrix : Custom
Codec ID :
Codec ID/Hint :
Duration : 1 h 42 min
Bit rate : 2 148 kb/s
Width : 720 pixels
Height : 304 pixels
Display aspect ratio : 2.35:1
Frame rate : 23.976 (24000/1001) FPS
Color space : YUV
Chroma subsampling : 4:2:0
Bit depth : 8 bits
Scan type : Progressive
Compression mode : Lossy
Bits/(Pixel*Frame) : 0.409
Stream size : 1.53 GiB (70%)
Writing library : 65

Audio #1
ID : 1
Format : AC-3
Format/Info : Audio Coding 3
Codec ID : 2000
Duration : 1 h 42 min
Bit rate mode : Constant
Bit rate : 448 kb/s
Channel(s) : 6 channels
Channel positions : Front: L C R, Side: L R, LFE
Sampling rate : 48.0 kHz
Frame rate : 31.250 FPS (1536 SPF)
Bit depth : 16 bits
Compression mode : Lossy
Stream size : 327 MiB (15%)
Alignment : Split accross interleaves
Interleave, duration : 42 ms (1.00 video frame)
Interleave, preload duratio : 500 ms
Service kind : Complete Main

Audio #2
ID : 2
Format : AC-3
Format/Info : Audio Coding 3
Codec ID : 2000
Duration : 1 h 42 min
Bit rate mode : Constant
Bit rate : 448 kb/s
Channel(s) : 6 channels
Channel positions : Front: L C R, Side: L R, LFE
Sampling rate : 48.0 kHz
Frame rate : 31.250 FPS (1536 SPF)
Bit depth : 16 bits
Compression mode : Lossy
Stream size : 327 MiB (15%)
Alignment : Split accross interleaves
Interleave, duration : 42 ms (1.00 video frame)
Interleave, preload duratio : 500 ms
Service kind : Complete Main

Озвучено за фінансової підтримки NemoInFire

Джерело озвучення та релізу: AniUA


Авторський реліз (завантажувати можна без реєстрації)
 Трекер:    Зареєстрований   

Завантажити / скачати фільм українською



відео для новачків



 Зареєстрований:   2018-08-24 18:55
 Розмір:   2.18 GB 
 Оцінка фільму:   9.7/10 (Голосів: 22)
   
Інші релізи
Arch Enemy 
Відео Гуртом - озвучення
Відео Гуртом - озвучення


З нами з: 30.08.12
Востаннє: 20.04.19
Повідомлень: 1640

2018-08-24 18:55  
Ось і HWP-версія.
VitNi 
Свій


З нами з: 05.05.12
Востаннє: 22.04.19
Повідомлень: 121

2018-08-24 19:46  
давно дивився - але фільм - супер! Happy
Ваш часовий пояс: GMT + 2 Години

Нова тема   Відповісти