Щоденники няні / The Nanny Diaries (2007) 1080p 2xUkr/Eng | Sub Ukr/Eng

Нові коментарі

Нова тема   Відповісти
Автор Повідомлення
Anonymous 







2018-08-24 15:24  
Щоденники няні / The Nanny Diaries (2007) 1080p 2xUkr/Eng | Sub Ukr/Eng

Щоденники няні / The Nanny Diaries (2007) 1080p 2xUkr/Eng | Sub Ukr/Eng


Жанр: комедія, драма, романтичний
Країна: США



Кінокомпанія: FilmColony. The Weinstein Company LLC
Режисер: Шері Спрінґер Берман, Роберт Пулчіні
Актори: Скарлет Йоганссон, Аліша Кіс, Лора Лінні, Донна Мерфі, Ніколас Арт, Кейді Гаффмен, Пол Джаматті, Кріс Еванс, Бранде Родерік, Натан Кордрі

Сюжет:
Молода студентка коледжу з робочого класу, влаштовуючись підробити нянею в одній з багатих сімей з Манхеттена, ніяк не могла передбачати, з якими складнощами все це для неї обернеться. Самозакохана дружина, вічно десь пропадає, чоловік та розпещений шестирічний син постійно стають джерелами проблем для неї.
Протягом дев'ятимісячного періоду її перебування в будинку відносини подружжя все більше і більше ускладнюються, а самій няні доводиться справлятися зі своїми навчальними заняттями, сімейними проблемами роботодавців, власним романтичним захопленням і розпещеним малюком.


Тривалість: 01:44:41
Якість: 1080p
Відео:
кодек:
розмір кадру: 1920х1080
бітрейт: 14,2 Мб/с

Аудіо # 1:
мова: українська
переклад: багатоголосий закадровий
кодек: 2.0
бітрейт: 256 кб/с

Аудіо # 2:
мова: українська
переклад: багатоголосий закадровий
кодек: 2.0
бітрейт: 192 кб/с

Аудіо # 3:
мова: англійська
переклад: оригінал
кодек: 5.1
бітрейт: 1509 кб/с

Субтитри:
мова: українська
тип: програмні (м'які)
формат: *.srt

Субтитри:
мова: англійська
тип: програмні (м'які)
формат: *.srt
Info
General
Unique ID : 187402521172876054854949489224314263928 (0x8CFC69A7E3E15A78B4EB24A7A6A81978)
Format :
Format version : Version 4 / Version 2
File size : 12.0 GiB
Duration : 1 h 44 min
Overall bit rate : 16.5 Mb/s
Movie name : -- STarankov
Encoded date : UTC 2018-08-24 13:15:02
Writing application : v6.1.0 ('Old Devil') built on Mar 4 2013 09:10:42
Writing library : libebml v1.3.0 + v1.4.0

Video
ID : 1
Format : AVC
Format/Info : Advanced Video Codec
Format profile : [email protected]
Format settings : CABAC / 4 Ref Frames
Format settings, CABAC : Yes
Format settings, ReFrames : 4 frames
Codec ID : V_MPEG4/ISO/AVC
Duration : 1 h 44 min
Bit rate : 14.2 Mb/s
Width : 1 920 pixels
Height : 1 080 pixels
Display aspect ratio : 16:9
Frame rate mode : Constant
Frame rate : 23.976 (24000/1001) FPS
Color space : YUV
Chroma subsampling : 4:2:0
Bit depth : 8 bits
Scan type : Progressive
Bits/(Pixel*Frame) : 0.285
Stream size : 10.4 GiB (86%)
Writing library : core 146 r2538 121396c
Encoding settings : cabac=1 / ref=4 / deblock=1:-1:-1 / analyse=0x3:0x113 / me=umh / subme=10 / psy=1 / psy_rd=1.00:0.15 / mixed_ref=1 / me_range=32 / chroma_me=1 / trellis=2 / 8x8dct=1 / cqm=0 / deadzone=21,11 / fast_pskip=1 / chroma_qp_offset=-3 / threads=6 / lookahead_threads=1 / sliced_threads=0 / nr=0 / decimate=1 / interlaced=0 / bluray_compat=0 / constrained_intra=0 / bframes=8 / b_pyramid=2 / b_adapt=2 / b_bias=0 / direct=1 / weightb=1 / open_gop=0 / weightp=2 / keyint=230 / keyint_min=23 / scenecut=40 / intra_refresh=0 / rc_lookahead=40 / rc=crf / mbtree=0 / crf=18.3 / qcomp=0.60 / qpmin=0 / qpmax=69 / qpstep=4 / vbv_maxrate=40000 / vbv_bufsize=50000 / crf_max=0.0 / nal_hrd=none / filler=0 / ip_ratio=1.40 / pb_ratio=1.30 / aq=1:1.00
Language : English
Default : Yes
Forced : No
Statistics Tags Issue : v8.2.0 ('World of Adventure') 64bit 2015-10-21 10:27:14 / v6.1.0 ('Old Devil') built on Mar 4 2013 09:10:42 2018-08-24 13:15:02
FromStats_BitRate : 14513229
FromStats_Duration : 01:44:41.442000000
FromStats_FrameCount : 150604
FromStats_StreamSize : 11395500850

Audio #1
ID : 2
Format : AC-3
Format/Info : Audio Coding 3
Codec ID : A_AC3
Duration : 1 h 44 min
Bit rate mode : Constant
Bit rate : 256 kb/s
Channel(s) : 2 channels
Channel positions : Front: L R
Sampling rate : 48.0 kHz
Frame rate : 31.250 FPS (1536 SPF)
Bit depth : 16 bits
Compression mode : Lossy
Stream size : 192 MiB (2%)
Title : UKR (K1)
Language : Ukrainian
Service kind : Complete Main
Default : Yes
Forced : Yes

Audio #2
ID : 3
Format : AC-3
Format/Info : Audio Coding 3
Codec ID : A_AC3
Duration : 1 h 44 min
Bit rate mode : Constant
Bit rate : 192 kb/s
Channel(s) : 2 channels
Channel positions : Front: L R
Sampling rate : 48.0 kHz
Frame rate : 31.250 FPS (1536 SPF)
Bit depth : 16 bits
Compression mode : Lossy
Stream size : 144 MiB (1%)
Title : UKR (Новий)
Language : Ukrainian
Service kind : Complete Main
Default : No
Forced : No

Audio #3
ID : 4
Format :
Format/Info : Digital Theater Systems
Codec ID : A_DTS
Duration : 1 h 44 min
Bit rate mode : Constant
Bit rate : 1 509 kb/s
Channel(s) : 6 channels
Channel positions : Front: L C R, Side: L R, LFE
Sampling rate : 48.0 kHz
Frame rate : 93.750 FPS (512 SPF)
Bit depth : 16 bits
Compression mode : Lossy
Stream size : 1.10 GiB (9%)
Language : English
Default : No
Forced : No
Statistics Tags Issue : v8.2.0 ('World of Adventure') 64bit 2015-10-21 10:27:14 / v6.1.0 ('Old Devil') built on Mar 4 2013 09:10:42 2018-08-24 13:15:02
FromStats_BitRate : 1509000
FromStats_Duration : 01:44:41.451000000
FromStats_FrameCount : 588886
FromStats_StreamSize : 1184838700

Text #1
ID : 5
Format : UTF-8
Codec ID : S_TEXT/UTF8
Codec ID/Info : UTF-8 Plain Text
Title : UKR
Language : Ukrainian
Default : Yes
Forced : No

Text #2
ID : 6
Format : UTF-8
Codec ID : S_TEXT/UTF8
Codec ID/Info : UTF-8 Plain Text
Language : English
Default : No
Forced : No
Statistics Tags Issue : v8.2.0 ('World of Adventure') 64bit 2015-10-21 10:27:14 / v6.1.0 ('Old Devil') built on Mar 4 2013 09:10:42 2018-08-24 13:15:02
FromStats_BitRate : 82
FromStats_Duration : 01:43:50.522000000
FromStats_FrameCount : 1951
FromStats_StreamSize : 63863
Скріншоти







За українські доріжки подяка п.: xslim, Breniak, Gelios
Особиста подяка пану denixx за надану матеріальну допомогу на підтримку цього і майбутніх релізів.
Джерело:


 Трекер:    Зареєстрований   

Завантажити / скачати фільм українською



відео для новачків



 Зареєстрований:   2018-08-24 15:24
 Розмір:   12.05 GB 
 Оцінка фільму:   10/10 (Голосів: 1)
   
Інші релізи
   Щоденники няні / The Nanny Diaries (2007) 2xUkr/Eng | Sub Ukr/Eng Gelios  6 / 0   2.19 GB   2013-03-19 18:00 
   Щоденники няні / The Nanny Diaries (2007) AVC igrik09  0 / 0   1.24 GB   2012-02-16 23:59 
Ваш часовий пояс: GMT + 2 Години

Нова тема   Відповісти