Усе життя перед її очима / The Life Before Her Eyes (2007) 1080p Ukr/Eng | Sub Eng

Нові коментарі

Нова тема   Відповісти
Автор Повідомлення
Anonymous 







2018-08-24 15:04  
Усе життя перед її очима / The Life Before Her Eyes (2007) 1080p Ukr/Eng | Sub Eng

Усе життя перед її очима / The Life Before Her Eyes (2007) 1080p Ukr/Eng | Sub Eng


Жанр: трилер, драма
Країна: США



Кінокомпанія: 2929 Productions
Режисер: Вадим Перельман
Актори: Ума Турман, Еван Рейчел Вуд, Ева Амуррі, Габріель Бреннан, Бретт Каллен, Оскар Айзек, Джек Гілпін, Меггі Лейсі, Джон Магаро, Лінн Коен, Наталі Полдінг, Моллі Прайс, Олівер Соломон, Кайа Джем, Шейна Левін, Ивен Нойманн, Енн МакДонаф, Джеймі Вотсон

Сюжет:
Через 15 років після масового вбивства, яке сталося в американському коледжі, Діана (Ума Турман), яка вижила в тому жаху, не може позбутися від спогадів. Тоді була вбита її краща подруга. Зараз Діана, вже доросла заміжня жінка, яка виховує восьмирічну доньку, мучиться від неможливості розділити реальність і вигадку. Все це призводить до фіналу, який можна трактувати мінімум двома різними способами.


Тривалість: 01:29:39
Якість: 1080p
Відео:
кодек:
розмір кадру: 1920х800
бітрейт: 10.7 Мб/с

Аудіо # 1:
мова: українська
переклад: багатоголосий закадровий
кодек: 5.1
бітрейт: 448 кб/с

Аудіо # 2:
мова: англійська
переклад: оригінал
кодек: 5.1
бітрейт: 1509 кб/с

Субтитри:
мова: англійська
тип: програмні (м'які)
формат: *.srt
Info
General
Unique ID : 195971120571656327928226836605853219851 (0x936EAA39242DECA19D224C6122CFBC0B)
Format :
Format version : Version 4 / Version 2
File size : 7.95 GiB
Duration : 1 h 29 min
Overall bit rate : 12.7 Mb/s
Encoded date : UTC 2018-08-24 12:57:28
Writing application : v6.1.0 ('Old Devil') built on Mar 4 2013 09:10:42
Writing library : libebml v1.3.0 + v1.4.0

Video
ID : 1
Format : AVC
Format/Info : Advanced Video Codec
Format profile : [email protected]
Format settings : CABAC / 5 Ref Frames
Format settings, CABAC : Yes
Format settings, ReFrames : 5 frames
Codec ID : V_MPEG4/ISO/AVC
Duration : 1 h 29 min
Bit rate : 10.7 Mb/s
Width : 1 920 pixels
Height : 800 pixels
Display aspect ratio : 2.40:1
Frame rate mode : Constant
Frame rate : 23.976 FPS
Color space : YUV
Chroma subsampling : 4:2:0
Bit depth : 8 bits
Scan type : Progressive
Bits/(Pixel*Frame) : 0.291
Stream size : 6.56 GiB (83%)
Writing library : core 65 r999M cc51047
Encoding settings : cabac=1 / ref=5 / deblock=1:-3:-3 / analyse=0x3:0x113 / me=umh / subme=9 / psy_rd=1.0:0.0 / mixed_ref=1 / me_range=32 / chroma_me=1 / trellis=0 / 8x8dct=1 / cqm=2 / deadzone=6,4 / chroma_qp_offset=-2 / threads=6 / nr=0 / decimate=1 / mbaff=0 / bframes=3 / b_pyramid=1 / b_adapt=1 / b_bias=0 / direct=3 / wpredb=1 / keyint=240 / keyint_min=24 / scenecut=40(pre) / rc=2pass / bitrate=10733 / ratetol=1.0 / qcomp=0.60 / qpmin=10 / qpmax=51 / qpstep=4 / cplxblur=20.0 / qblur=0.5 / ip_ratio=1.40 / pb_ratio=1.30 / aq=1:1.00
Language : English
Default : Yes
Forced : No

Audio #1
ID : 2
Format : AC-3
Format/Info : Audio Coding 3
Codec ID : A_AC3
Duration : 1 h 29 min
Bit rate mode : Constant
Bit rate : 448 kb/s
Channel(s) : 6 channels
Channel positions : Front: L C R, Side: L R, LFE
Sampling rate : 48.0 kHz
Frame rate : 31.250 FPS (1536 SPF)
Bit depth : 16 bits
Compression mode : Lossy
Stream size : 287 MiB (4%)
Title : UKR (Новий)
Language : Ukrainian
Service kind : Complete Main
Default : Yes
Forced : Yes

Audio #2
ID : 3
Format :
Format/Info : Digital Theater Systems
Codec ID : A_DTS
Duration : 1 h 29 min
Bit rate mode : Constant
Bit rate : 1 509 kb/s
Channel(s) : 6 channels
Channel positions : Front: L C R, Side: L R, LFE
Sampling rate : 48.0 kHz
Frame rate : 93.750 FPS (512 SPF)
Bit depth : 24 bits
Compression mode : Lossy
Stream size : 967 MiB (12%)
Language : English
Default : No
Forced : No

Text
ID : 4
Format : UTF-8
Codec ID : S_TEXT/UTF8
Codec ID/Info : UTF-8 Plain Text
Language : English
Default : No
Forced : No
Скріншоти








За звукову доріжку подяка п. karvai0 та п. JACKUS
Особиста подяка пану denixx за надану матеріальну допомогу на підтримку цього і майбутніх релізів.
Джерело:


 Трекер:    Зареєстрований   

Завантажити / скачати фільм українською



відео для новачків



 Зареєстрований:   2018-08-24 15:04
 Розмір:   7.95 GB 
 Оцінка фільму:   9/10 (Голосів: 3)
   
deni_Al 
Новенький


З нами з: 05.08.09
Востаннє: 14.12.18
Повідомлень: 6

2018-08-27 17:56  
Цікавий фільм з непередбачуваним фіналом.
Раджу! 8.5/10

Ваш часовий пояс: GMT + 2 Години

Нова тема   Відповісти