Життя по Джейн Остін / The Jane Austen Book Club (2007) 720p Ukr/Eng | Sub Eng

Нові коментарі

Нова тема   Відповісти
Автор Повідомлення
Anonymous 







2018-08-24 10:56  
Життя по Джейн Остін / The Jane Austen Book Club (2007) 720p Ukr/Eng | Sub Eng

Життя по Джейн Остін / The Jane Austen Book Club (2007) 720p Ukr/Eng | Sub Eng


Жанр: драма, мелодрама, комедія
Країна: США



Кінокомпанія: John Calley Productions, Mockingbird Pictures
Режисер: Робін Суїкорд
Актори: Марія Белло, Емілі Блант, Кеті Бейкер, Емі Бреннеман, Меггі Грейс, Джиммі Смітс, Кевін Зегерс, Марк Блукас, Катрін Шрайбер

Сюжет:
Молодий закоханий чоловік і п'ять неординарних жінок об'єднуються на один сезон у літературний клуб, щоб обговорити шість класичних романів відомої письменниці. Під час звернення до книг вони розуміють, що душевні переживання і сердечні страждання персонажів не дуже відрізняються від їх власних. А ось атмосфера і реалії ХХI століття - подібні версії романів.
Попри те, що всі герої стикаються в житті з буденними життєвими проблемами, на сторінках книг вони знаходять паралелі людських пристрастей, любові і дружби, розчарувань і романтичних надій. І кожен знаходить відповідь для себе.


Тривалість: 01:45:37
Якість: 720p
Відео:
кодек:
розмір кадру: 1278х720
бітрейт: 7298 кб/с

Аудіо # 1:
мова: українська
переклад: багатоголосий закадровий
кодек: 2.0
бітрейт: 192 кб/с

Аудіо # 2:
мова: англійська
переклад: оригінал
кодек: 5.1
бітрейт: 640 кб/с

Аудіо # 3:
мова: англійська (коментарі)
переклад: оригінал
кодек: 2.0
бітрейт: 192 кб/с

Субтитри:
мова: англійська (повні)
тип: програмні (м'які)
формат: *.srt

Субтитри:
мова: англійська (коментарі)
тип: програмні (м'які)
формат: *.srt
Info
General
Unique ID : 187663635570168404294057777950183783418 (0x8D2EB396ED5C0DBBA2237283DDE5FBFA)
Format :
Format version : Version 4 / Version 2
File size : 6.14 GiB
Duration : 1 h 45 min
Overall bit rate : 8 320 kb/s
Encoded date : UTC 2018-08-24 08:15:46
Writing application : v6.1.0 ('Old Devil') built on Mar 4 2013 09:10:42
Writing library : libebml v1.3.0 + v1.4.0

Video
ID : 1
Format : AVC
Format/Info : Advanced Video Codec
Format profile : [email protected]
Format settings : CABAC / 9 Ref Frames
Format settings, CABAC : Yes
Format settings, ReFrames : 9 frames
Codec ID : V_MPEG4/ISO/AVC
Duration : 1 h 45 min
Bit rate : 7 298 kb/s
Width : 1 278 pixels
Height : 720 pixels
Display aspect ratio : 16:9
Frame rate mode : Constant
Frame rate : 23.976 (24000/1001) FPS
Color space : YUV
Chroma subsampling : 4:2:0
Bit depth : 8 bits
Scan type : Progressive
Bits/(Pixel*Frame) : 0.331
Stream size : 5.26 GiB (86%)
Writing library : core 125 r2200 999b753
Encoding settings : cabac=1 / ref=9 / deblock=1:-3:-3 / analyse=0x3:0x133 / me=umh / subme=11 / psy=1 / psy_rd=0.90:0.00 / mixed_ref=1 / me_range=32 / chroma_me=1 / trellis=2 / 8x8dct=1 / cqm=0 / deadzone=21,11 / fast_pskip=0 / chroma_qp_offset=-2 / threads=6 / lookahead_threads=1 / sliced_threads=0 / nr=0 / decimate=1 / interlaced=0 / bluray_compat=0 / constrained_intra=0 / bframes=9 / b_pyramid=2 / b_adapt=2 / b_bias=0 / direct=3 / weightb=1 / open_gop=0 / weightp=2 / keyint=250 / keyint_min=23 / scenecut=40 / intra_refresh=0 / rc_lookahead=60 / rc=2pass / mbtree=1 / bitrate=7298 / ratetol=1.0 / qcomp=0.70 / qpmin=0 / qpmax=69 / qpstep=4 / cplxblur=20.0 / qblur=0.5 / ip_ratio=1.40 / aq=1:0.75 / zones=11790,15638,b=1.3/90464,91785,b=1.5/101374,102237,b=1.3/104813,106375,b=1.2/106376,106977,b=1.3/108025,109831,b=1.3/115701,116945,b=1.3/117332,117860,b=1.4/119390,122769,b=1.3/140698,141089,b=1.4/141702,142611,b=1.4/142612,144038,b=1.2
Language : English
Default : Yes
Forced : No

Audio #1
ID : 2
Format : AC-3
Format/Info : Audio Coding 3
Codec ID : A_AC3
Duration : 1 h 45 min
Bit rate mode : Constant
Bit rate : 192 kb/s
Channel(s) : 2 channels
Channel positions : Front: L R
Sampling rate : 48.0 kHz
Frame rate : 31.250 FPS (1536 SPF)
Bit depth : 16 bits
Compression mode : Lossy
Stream size : 145 MiB (2%)
Title : UKR (Inter)
Language : Ukrainian
Service kind : Complete Main
Default : Yes
Forced : Yes

Audio #2
ID : 3
Format : AC-3
Format/Info : Audio Coding 3
Codec ID : A_AC3
Duration : 1 h 45 min
Bit rate mode : Constant
Bit rate : 640 kb/s
Channel(s) : 6 channels
Channel positions : Front: L C R, Side: L R, LFE
Sampling rate : 48.0 kHz
Frame rate : 31.250 FPS (1536 SPF)
Bit depth : 16 bits
Compression mode : Lossy
Stream size : 484 MiB (8%)
Language : English
Service kind : Complete Main
Default : No
Forced : No

Audio #3
ID : 4
Format : AC-3
Format/Info : Audio Coding 3
Codec ID : A_AC3
Duration : 1 h 45 min
Bit rate mode : Constant
Bit rate : 192 kb/s
Channel(s) : 2 channels
Channel positions : Front: L R
Sampling rate : 48.0 kHz
Frame rate : 31.250 FPS (1536 SPF)
Bit depth : 16 bits
Compression mode : Lossy
Stream size : 145 MiB (2%)
Title : Commentary
Language : English
Service kind : Complete Main
Default : No
Forced : No

Text #1
ID : 5
Format : UTF-8
Codec ID : S_TEXT/UTF8
Codec ID/Info : UTF-8 Plain Text
Language : English
Default : No
Forced : No

Text #2
ID : 6
Format : UTF-8
Codec ID : S_TEXT/UTF8
Codec ID/Info : UTF-8 Plain Text
Title : Commentary
Language : English
Default : No
Forced : No

Menu
00:00:00.000 : :00:00:00.000
00:08:11.741 : :00:08:11.741
00:16:23.232 : :00:16:23.232
00:20:15.256 : :00:20:15.256
00:30:12.728 : :00:30:12.728
00:37:27.954 : :00:37:27.954
00:41:59.559 : :00:41:59.559
00:50:29.401 : :00:50:29.401
00:54:27.890 : :00:54:27.890
00:58:22.499 : :00:58:22.499
01:08:05.415 : :01:08:05.415
01:15:05.543 : :01:15:05.543
01:21:17.623 : :01:21:17.623
01:28:19.085 : :01:28:19.085
01:34:58.234 : :01:34:58.234
01:40:58.344 : :01:40:58.344
Скріншоти







Зв українську доріжку подяка п. kicyunya
Особиста подяка пану denixx за надану матеріальну допомогу на підтримку цього і майбутніх релізів.
Джерело:


 Трекер:    Зареєстрований   

Завантажити / скачати фільм українською



відео для новачків



 Зареєстрований:   2018-08-24 10:56
 Розмір:   6.14 GB 
 Оцінка фільму:   8.7/10 (Голосів: 3)
   
Інші релізи
Ваш часовий пояс: GMT + 2 Години

Нова тема   Відповісти