5 років майже одружені / The Five-Year Engagement (2012) 1080p 2xUkr/Eng | Sub Ukr/Eng

Нові коментарі

Нова тема   Відповісти
Автор Повідомлення
Anonymous 







2018-08-24 10:11  
5 років майже одружені / The Five-Year Engagement (2012) 1080p 2xUkr/Eng | Sub Ukr/Eng

5 років майже одружені / The Five-Year Engagement (2012) 1080p 2xUkr/Eng | Sub Ukr/Eng


Жанр: комедія, романтичний
Країна: США



Кінокомпанія: Universal Pictures, Relativity Media, Apatow Productions
Режисер: Ніколас Столлер
Актори: Джейсон Сігел, Емілі Блант, Кріс Пратт, Елісон Брі, Лорен Відман, Мімі Кеннеді, Девід Пеймер, Джекі Вівер та інші

Сюжет:
Він - запропонував, вона - погодилася! Здавалося б, справа в капелюсі - майже одружені. Але весілля стає нездійсненною місією, коли в справу вступає загін колишніх подружок нареченого, бос нареченої, тріщить по швах список гостей і старенькі родичі, які мають тенденцію вмирати в найбільш незручний момент. І начебто трошки одружені, але все якось не до кінця...


Тривалість: 02:04:20
Якість: 1080p
Відео:
кодек:
розмір кадру: 1920х1040
бітрейт: 9 000 кб/с

Аудіо # 1:
мова: українська
переклад: багатоголосий закадровий
кодек: 2.0
бітрейт: 192 кб/с

Аудіо # 2:
мова: українська
переклад: багатоголосий закадровий
кодек: 2.0
бітрейт: 192 кб/с

Аудіо # 3:
мова: англійська
переклад: оригінал
кодек: 5.1
бітрейт: 1 509 кб/с

Субтитри:
мова: українська
тип: програмні (м'які)
формат: *.srt

Субтитри:
мова: англійська
тип: програмні (м'які)
формат: *.srt
Info

General
Unique ID : 189614439684865137156416342491915455995 (0x8EA669A88641DD2E8B9650D125158DFB)
Format :
Format version : Version 4 / Version 2
File size : 9.46 GiB
Duration : 2 h 4 min
Overall bit rate : 10.9 Mb/s
Encoded date : UTC 2018-10-10 18:58:38
Writing application : v6.1.0 ('Old Devil') built on Mar 4 2013 09:10:42
Writing library : libebml v1.3.0 + v1.4.0

Video
ID : 1
Format : AVC
Format/Info : Advanced Video Codec
Format profile : [email protected]
Format settings : CABAC / 4 Ref Frames
Format settings, CABAC : Yes
Format settings, ReFrames : 4 frames
Codec ID : V_MPEG4/ISO/AVC
Duration : 2 h 4 min
Bit rate : 9 000 kb/s
Width : 1 920 pixels
Height : 1 040 pixels
Display aspect ratio : 1.85:1
Frame rate mode : Constant
Frame rate : 23.976 (24000/1001) FPS
Color space : YUV
Chroma subsampling : 4:2:0
Bit depth : 8 bits
Scan type : Progressive
Bits/(Pixel*Frame) : 0.188
Stream size : 7.63 GiB (81%)
Title : The Five-Year Engagement (2012)
Writing library : core 125 r2208 d9d2288
Encoding settings : cabac=1 / ref=4 / deblock=1:-3:-3 / analyse=0x3:0x133 / me=umh / subme=11 / psy=1 / psy_rd=1.00:0.00 / mixed_ref=1 / me_range=32 / chroma_me=1 / trellis=2 / 8x8dct=1 / cqm=0 / deadzone=21,11 / fast_pskip=0 / chroma_qp_offset=-2 / threads=16 / lookahead_threads=2 / sliced_threads=0 / nr=0 / decimate=0 / interlaced=0 / bluray_compat=0 / constrained_intra=0 / bframes=9 / b_pyramid=2 / b_adapt=2 / b_bias=0 / direct=3 / weightb=1 / open_gop=0 / weightp=2 / keyint=240 / keyint_min=23 / scenecut=40 / intra_refresh=0 / rc_lookahead=100 / rc=2pass / mbtree=1 / bitrate=9000 / ratetol=1.0 / qcomp=0.60 / qpmin=0 / qpmax=69 / qpstep=4 / cplxblur=20.0 / qblur=0.5 / ip_ratio=1.40 / aq=1:0.95
Language : English
Default : Yes
Forced : No

Audio #1
ID : 2
Format : AC-3
Format/Info : Audio Coding 3
Codec ID : A_AC3
Duration : 2 h 4 min
Bit rate mode : Constant
Bit rate : 192 kb/s
Channel(s) : 2 channels
Channel positions : Front: L R
Sampling rate : 48.0 kHz
Frame rate : 31.250 FPS (1536 SPF)
Bit depth : 16 bits
Compression mode : Lossy
Stream size : 171 MiB (2%)
Title : UKR (NLO-TV)
Language : Ukrainian
Service kind : Complete Main
Default : Yes
Forced : Yes

Audio #2
ID : 3
Format : AC-3
Format/Info : Audio Coding 3
Codec ID : A_AC3
Duration : 2 h 4 min
Bit rate mode : Constant
Bit rate : 192 kb/s
Channel(s) : 2 channels
Channel positions : Front: L R
Sampling rate : 48.0 kHz
Frame rate : 31.250 FPS (1536 SPF)
Bit depth : 16 bits
Compression mode : Lossy
Stream size : 171 MiB (2%)
Title : UKR (CINE+)
Language : Ukrainian
Service kind : Complete Main
Default : No
Forced : No

Audio #3
ID : 4
Format :
Format/Info : Digital Theater Systems
Codec ID : A_DTS
Duration : 2 h 4 min
Bit rate mode : Constant
Bit rate : 1 509 kb/s
Channel(s) : 6 channels
Channel positions : Front: L C R, Side: L R, LFE
Sampling rate : 48.0 kHz
Frame rate : 93.750 FPS (512 SPF)
Bit depth : 24 bits
Compression mode : Lossy
Stream size : 1.31 GiB (14%)
Language : English
Default : No
Forced : No

Text #1
ID : 5
Format : UTF-8
Codec ID : S_TEXT/UTF8
Codec ID/Info : UTF-8 Plain Text
Title : Full
Language : Ukrainian
Default : No
Forced : No

Text #2
ID : 6
Format : UTF-8
Codec ID : S_TEXT/UTF8
Codec ID/Info : UTF-8 Plain Text
Title : Full
Language : English
Default : No
Forced : No

Menu
00:00:00.000 : en:Chapter 01
00:06:55.373 : en:Chapter 02
00:12:23.617 : en:Chapter 03
00:17:45.773 : en:Chapter 04
00:23:14.476 : en:Chapter 05
00:29:03.658 : en:Chapter 06
00:34:46.626 : en:Chapter 07
00:39:08.387 : en:Chapter 08
00:44:46.892 : en:Chapter 09
00:50:13.844 : en:Chapter 10
00:56:20.293 : en:Chapter 11
01:02:18.484 : en:Chapter 12
01:09:24.118 : en:Chapter 13
01:17:04.161 : en:Chapter 14
01:23:15.573 : en:Chapter 15
01:31:34.739 : en:Chapter 16
01:39:33.926 : en:Chapter 17
01:44:52.244 : en:Chapter 18
01:49:51.668 : en:Chapter 19
01:56:54.382 : en:Chapter 20
Скріншоти









За українську доріжку №1 подяка п.: Bohdan237, leicheman, Electroz
За сирий звук для доріжки №2 подяка п. Sando7
Особиста подяка пану denixx за надану матеріальну допомогу на підтримку цього і майбутніх релізів.
Джерело:


 Трекер:    Зареєстрований   

Завантажити / скачати фільм українською



відео для новачків



 Зареєстрований:   2018-10-10 21:08
 Розмір:   9.46 GB 
 Оцінка фільму:   8/10 (Голосів: 2)
   
andrrrrr 
Новенький


З нами з: 12.11.11
Востаннє: 19.12.18
Повідомлень: 3

2018-08-24 14:24  
The Five-Year Engagement - п'ятирічні заручини?
0mage0 
VIP


З нами з: 06.10.15
Востаннє: 18.12.18
Повідомлень: 412

2018-11-03 12:27  
andrrrrr написано:
The Five-Year Engagement - п'ятирічні заручини?

Дослівно було б так Happy
Хоча за сюжетом вони заручини розірвали і якийсь час взагалі зустрічалися з іншими...
Фільм норм, дивитися можна Happy

Ваш часовий пояс: GMT + 2 Години

Нова тема   Відповісти