Фанат / The Fan (1996) 1080p 3xUkr/Eng | Sub Eng

Нові коментарі

Нова тема   Відповісти
Останній раз роздавалося drop_plz (2018-10-22)
Автор Повідомлення
Anonymous 







2018-08-24 10:58  
Фанат / The Fan (1996) 1080p 3xUkr/Eng | Sub Eng



Жанр: трилер, драма, спорт
Країна: США



Кінокомпанія: TriStar Pictures, Mandalay Entertainment, Scott Free Productions
Режисер: Тоні Скотт / Tony Scott
Актори: Роберт Де Ніро / Robert De Niro, Веслі Снайпс / Wesley Snipes, Еллен Баркін / Ellen Barkin, Джон Леґвізамо / John Leguizamo, Бенісіо Дель Торо / Benicio Del Toro, Патті д'Арбанвіль / Patti D'Arbanville, Чарльз Галлаган / Charles Hallahan, Джек Блeк / Jack Black та інші

Сюжет:
Зірка бейсболу Бобі Рейберн переходить у команду "San Francisco Giants". Тепер він знаходиться під пильною увагою не лише репортерів і телекамер, але і Джила Рейнарда, який фанатично любить бейсбол і вболіває за "Giants". І коли в новій команді справи в Бобі йдуть кепсько, Джил вирішує взяти ситуацію під свій контроль...


Тривалість: 01:56:36
Якість: 1080p
Відео:
кодек:
розмір кадру: 1920х816
бітрейт: 13 Мб/с

Аудіо # 1:
мова: українська
переклад: двоголосий закадровий
кодек: 2.0 (з 5.1)
бітрейт: 192 кб/с

Аудіо # 2:
мова: українська
переклад: багатоголосий закадровий
кодек: 2.0
бітрейт: 192 кб/с

Аудіо # 3:
мова: українська
переклад: багатоголосий закадровий
кодек: 2.0 (з 5.1)
бітрейт: 192 кб/с

Аудіо # 4:
мова: англійська
переклад: оригінал
кодек: 5.1
бітрейт: 1509 кб/с

Субтитри:
мова: англійська
тип: програмні (м'які)
формат: *.srt
Info
General
Unique ID : 244291042122276050702628387110746669846 (0xB7C8BE4A03F1CA1AB3B0994E98F54316)
Format :
Format version : Version 4 / Version 2
File size : 12.6 GiB
Duration : 1 h 56 min
Overall bit rate : 15.4 Mb/s
Movie name : The Fan (1996)
Encoded date : UTC 2018-08-24 07:01:11
Writing application : v6.1.0 ('Old Devil') built on Mar 4 2013 09:10:42
Writing library : libebml v1.3.0 + v1.4.0

Video
ID : 1
Format : AVC
Format/Info : Advanced Video Codec
Format profile : [email protected]
Format settings : CABAC / 5 Ref Frames
Format settings, CABAC : Yes
Format settings, ReFrames : 5 frames
Codec ID : V_MPEG4/ISO/AVC
Duration : 1 h 56 min
Bit rate : 13.0 Mb/s
Width : 1 920 pixels
Height : 816 pixels
Display aspect ratio : 2.35:1
Frame rate mode : Constant
Frame rate : 23.976 (24000/1001) FPS
Color space : YUV
Chroma subsampling : 4:2:0
Bit depth : 8 bits
Scan type : Progressive
Bits/(Pixel*Frame) : 0.347
Stream size : 10.6 GiB (84%)
Title : The Fan (1996)
Writing library : core 148 r2744 b97ae06
Encoding settings : cabac=1 / ref=5 / deblock=1:-1:-1 / analyse=0x3:0x113 / me=umh / subme=8 / psy=1 / psy_rd=0.99:0.01 / mixed_ref=1 / me_range=16 / chroma_me=1 / trellis=1 / 8x8dct=1 / cqm=0 / deadzone=21,11 / fast_pskip=0 / chroma_qp_offset=-3 / threads=12 / lookahead_threads=2 / sliced_threads=0 / nr=0 / decimate=1 / interlaced=0 / bluray_compat=0 / constrained_intra=0 / bframes=3 / b_pyramid=2 / b_adapt=2 / b_bias=0 / direct=3 / weightb=1 / open_gop=0 / weightp=2 / keyint=240 / keyint_min=23 / scenecut=40 / intra_refresh=0 / rc_lookahead=40 / rc=crf / mbtree=1 / crf=20.0 / qcomp=0.60 / qpmin=0 / qpmax=69 / qpstep=4 / vbv_maxrate=62500 / vbv_bufsize=78125 / crf_max=0.0 / nal_hrd=none / filler=0 / ip_ratio=1.40 / aq=1:1.00
Language : English
Default : Yes
Forced : No

Audio #1
ID : 2
Format : AC-3
Format/Info : Audio Coding 3
Codec ID : A_AC3
Duration : 1 h 56 min
Bit rate mode : Constant
Bit rate : 192 kb/s
Channel(s) : 2 channels
Channel positions : Front: L R
Sampling rate : 48.0 kHz
Frame rate : 31.250 FPS (1536 SPF)
Bit depth : 16 bits
Compression mode : Lossy
Stream size : 160 MiB (1%)
Title : UKR (2+2)
Language : Ukrainian
Service kind : Complete Main
Default : Yes
Forced : Yes

Audio #2
ID : 3
Format : AC-3
Format/Info : Audio Coding 3
Codec ID : A_AC3
Duration : 1 h 56 min
Bit rate mode : Constant
Bit rate : 192 kb/s
Channel(s) : 2 channels
Channel positions : Front: L R
Sampling rate : 48.0 kHz
Frame rate : 31.250 FPS (1536 SPF)
Bit depth : 16 bits
Compression mode : Lossy
Stream size : 160 MiB (1%)
Title : UKR (AMC)
Language : Ukrainian
Service kind : Complete Main
Default : No
Forced : No

Audio #3
ID : 4
Format : AC-3
Format/Info : Audio Coding 3
Codec ID : A_AC3
Duration : 1 h 56 min
Bit rate mode : Constant
Bit rate : 192 kb/s
Channel(s) : 2 channels
Channel positions : Front: L R
Sampling rate : 48.0 kHz
Frame rate : 31.250 FPS (1536 SPF)
Bit depth : 16 bits
Compression mode : Lossy
Stream size : 160 MiB (1%)
Title : UKR (Inter)
Language : Ukrainian
Service kind : Complete Main
Default : No
Forced : No

Audio #4
ID : 5
Format :
Format/Info : Digital Theater Systems
Codec ID : A_DTS
Duration : 1 h 56 min
Bit rate mode : Constant
Bit rate : 1 509 kb/s
Channel(s) : 6 channels
Channel positions : Front: L C R, Side: L R, LFE
Sampling rate : 48.0 kHz
Frame rate : 93.750 FPS (512 SPF)
Bit depth : 16 bits
Compression mode : Lossy
Stream size : 1.23 GiB (10%)
Language : English
Default : No
Forced : No

Text
ID : 6
Format : UTF-8
Codec ID : S_TEXT/UTF8
Codec ID/Info : UTF-8 Plain Text
Language : English
Default : No
Forced : No

Menu
00:00:00.000 : en:00:00:00.000
00:08:08.446 : en:00:08:08.446
00:13:52.123 : en:00:13:52.123
00:21:00.759 : en:00:21:00.759
00:24:10.616 : en:00:24:10.616
00:30:18.900 : en:00:30:18.900
00:36:38.613 : en:00:36:38.613
00:41:43.376 : en:00:41:43.376
00:46:51.559 : en:00:46:51.559
00:51:25.457 : en:00:51:25.457
00:58:32.634 : en:00:58:32.634
01:06:17.015 : en:01:06:17.015
01:08:01.411 : en:01:08:01.411
01:11:45.259 : en:01:11:45.259
01:19:20.214 : en:01:19:20.214
01:24:04.373 : en:01:24:04.373
01:28:06.531 : en:01:28:06.531
01:35:51.454 : en:01:35:51.454
01:42:43.324 : en:01:42:43.324
01:51:26.680 : en:01:51:26.680
Скріншоти









Звукозапис з ТБ: Sando7, robotron005, Hulk1987
Зведення звуку: taraskill1, Lan
Виготовлення постеру: BigMak
Особиста подяка пану denixx за надану матеріальну допомогу на підтримку цього і майбутніх релізів.
Джерело:


Срібний реліз (на рейтинг впливає 50% завантаженого)
 Трекер:    Зареєстрований   

Завантажити / скачати фільм українською



відео для новачків



 Зареєстрований:   2018-08-24 10:58
 Розмір:   12.56 GB 
 Оцінка фільму:   10/10 (Голосів: 2)
   
Інші релізи
   Фанат / The Fan (1996) 3xUkr/Eng taraskill1  3 / 0   2.19 GB   2017-07-02 14:50 
Ваш часовий пояс: GMT + 2 Години

Нова тема   Відповісти