Каратель / The Punisher (2004) AVC Ukr/Eng | sub Eng

Нові коментарі

Нова тема   Відповісти
Автор Повідомлення
staf777 
Відео Гуртом - підтримка та поширення
Відео Гуртом - підтримка та поширення


З нами з: 16.11.16
Востаннє: 23.01.20
Повідомлень: 3348

2018-08-24 09:44  
Каратель / The Punisher (2004) AVC Ukr/Eng | sub Eng

Каратель / The Punisher (2004) AVC Ukr/Eng | sub Eng


Жанр: бойовик, кримінальний, драма
Країна: США, Німеччина



Кінокомпанія: Lions Gate Films, Marvel Enterprises
Режисер: Джонатан Генслейґ
Актори: Томас Джейн, Джон Траволта, Вілл Паттон, Ребекка Ромейн, Бен Фостер, Джон Пінетт, Саманта Матіс, Маркус Джонс, А. Рассел Ендрюс, Джеймс Карпінелло, Лаура Гаррінґ, Едді Джемісон, Кевін Неш, Марк Коллі, Рой Шнайдер, Том Новікі

Сюжет:
Колишній оперативник загону Дельта, Френк Касл приходить на службу в ФБР як агент під прикриттям. Під час однієї з операцій через Касла помирає Боббі Сейнт — син відомого кримінального боса Говарда Сейнта. Сейнт наказує вбити Касла і його сім'ю. Гангстери Сейнта вирізують всю сім'ю Кастла, але самому Френку дивом вдається вижити. Завдяки місцевому відлюдникові Френк повертається до життя з наміром помститися.


Тривалість: 02:03:30
Якість: AVC
Відео:
кодек:
розмір кадру: 1024x436
бітрейт: 2500 кб/с

Аудіо # 1:
мова: українська
переклад: багатоголосий закадровий
кодек: 2.0
бітрейт: 192 кб/с

Аудіо # 2:
мова: англійська
переклад: оригінал
кодек: 5.1
бітрейт: 448 кб/с

Субтитри:
мова: англійська
тип: пререндерні
формат: *.pgs
Info
General
Unique ID : 206305465533772114444293881209450167042 (0x9B34FCC4B02F27FD81F8ECCB68207B02)
Complete name : D:\KINOZAL\The Punisher (2004) AVC [UKR_ENG] [Hurtom].
Format :
Format version : Version 4 / Version 2
File size : 2.72 GiB
Duration : 2 h 3 min
Overall bit rate : 3 148 kb/s
Movie name : The Punisher (2004) AVC [UKR_ENG] [Hurtom]
Encoded date : UTC 2018-08-24 15:27:23
Writing application : v24.0.0 ('Beyond The Pale') 64-bit
Writing library : libebml v1.3.6 + v1.4.9
Cover : Yes
Attachments : cover.jpg

Video
ID : 1
Format : AVC
Format/Info : Advanced Video Codec
Format profile : [email protected]
Format settings : CABAC / 8 Ref Frames
Format settings, CABAC : Yes
Format settings, ReFrames : 8 frames
Codec ID : V_MPEG4/ISO/AVC
Duration : 2 h 3 min
Bit rate : 2 500 kb/s
Width : 1 024 pixels
Height : 436 pixels
Display aspect ratio : 2.35:1
Frame rate mode : Constant
Frame rate : 23.976 (24000/1001) FPS
Color space : YUV
Chroma subsampling : 4:2:0
Bit depth : 8 bits
Scan type : Progressive
Bits/(Pixel*Frame) : 0.234
Stream size : 2.16 GiB (79%)
Writing library : core 114 r1913 5fd3dce
Encoding settings : cabac=1 / ref=8 / deblock=1:-2:-2 / analyse=0x3:0x133 / me=umh / subme=10 / psy=1 / psy_rd=1.00:0.00 / mixed_ref=1 / me_range=48 / chroma_me=1 / trellis=2 / 8x8dct=1 / cqm=0 / deadzone=21,11 / fast_pskip=0 / chroma_qp_offset=-2 / threads=6 / sliced_threads=0 / nr=0 / decimate=1 / interlaced=0 / constrained_intra=0 / bframes=8 / b_pyramid=2 / b_adapt=2 / b_bias=0 / direct=3 / weightb=1 / open_gop=0 / weightp=2 / keyint=250 / keyint_min=23 / scenecut=40 / intra_refresh=0 / rc=2pass / mbtree=0 / bitrate=2500 / ratetol=1.0 / qcomp=0.60 / qpmin=10 / qpmax=51 / qpstep=4 / cplxblur=20.0 / qblur=0.5 / ip_ratio=1.40 / pb_ratio=1.30 / aq=2:1.00
Language : English
Default : No
Forced : No

Audio #1
ID : 2
Format : AC-3
Format/Info : Audio Coding 3
Codec ID : A_AC3
Duration : 2 h 3 min
Bit rate mode : Constant
Bit rate : 192 kb/s
Channel(s) : 2 channels
Channel positions : Front: L R
Sampling rate : 48.0 kHz
Frame rate : 31.250 FPS (1536 SPF)
Bit depth : 16 bits
Compression mode : Lossy
Stream size : 170 MiB (6%)
Title : [UA-MVO-ICTV]
Language : Ukrainian
Service kind : Complete Main
Default : Yes
Forced : Yes

Audio #2
ID : 3
Format : AC-3
Format/Info : Audio Coding 3
Codec ID : A_AC3
Duration : 2 h 3 min
Bit rate mode : Constant
Bit rate : 448 kb/s
Channel(s) : 6 channels
Channel positions : Front: L C R, Side: L R, LFE
Sampling rate : 48.0 kHz
Frame rate : 31.250 FPS (1536 SPF)
Bit depth : 16 bits
Compression mode : Lossy
Stream size : 396 MiB (14%)
Title : Orig
Language : English
Service kind : Complete Main
Default : No
Forced : No

Text
ID : 4
Format : PGS
Muxing mode : zlib
Codec ID : S_HDMV/PGS
Codec ID/Info : Picture based subtitle format used on BDs/HD-DVDs
Duration : 1 h 53 min
Bit rate : 18.6 kb/s
Count of elements : 1758
Stream size : 15.2 MiB (1%)
Language : English
Default : No
Forced : No

Menu
00:00:00.000 : en:Chapter 01
00:07:06.926 : en:Chapter 02
00:14:57.438 : en:Chapter 03
00:22:23.925 : en:Chapter 04
00:31:55.330 : en:Chapter 05
00:38:29.557 : en:Chapter 06
00:46:16.273 : en:Chapter 07
00:54:10.872 : en:Chapter 08
01:01:19.676 : en:Chapter 09
01:08:20.304 : en:Chapter 10
01:15:16.220 : en:Chapter 11
01:22:47.379 : en:Chapter 12
01:35:01.487 : en:Chapter 13
01:40:39.366 : en:Chapter 14
01:48:43.725 : en:Chapter 15
01:55:42.936 : en:Chapter 16
Скріншоти




Джерело: &
Особиста оцінка: 8 - мені сподобалося


Срібний реліз (на рейтинг впливає 50% завантаженого)
 Трекер:    Зареєстрований   

Завантажити / скачати фільм українською



відео для новачків



 Зареєстрований:   2018-08-24 18:09
 Розмір:   2.72 GB 
 Оцінка фільму:   9.5/10 (Голосів: 16)
   
Інші релізи
bot 
робот


З нами з: 30.09.07
Востаннє: 26.05.05
Повідомлень: 23048

2018-08-24 18:09  
Тему перенесено з Анонси релізів до форуму Фільми


staf777

Ваш часовий пояс: GMT + 2 Години

Нова тема   Відповісти