Втеча з тюрми (Втеча з в’язниці) / The Escapist (2008) 1080p 2xUkr/Eng | Sub Eng

Нові коментарі

Нова тема   Відповісти
Автор Повідомлення
Anonymous 







2018-08-24 09:48  
Втеча з тюрми (Втеча з в’язниці) / The Escapist (2008) 1080p 2xUkr/Eng | Sub Eng

Втеча з тюрми (Втеча з в’язниці) / The Escapist (2008) 1080p 2xUkr/Eng | Sub Eng


Жанр: драма, кримінальний, трилер
Країна: Велика Британія, Ірландія



Кінокомпанія: Irish Film Board, Parallel Film Productions Ltd., Picture Farm
Режисер: Руперт Ваят
Актори: Браян Кокс, Деміан Льюїс, Джозеф Файнс, Сеу Джордж, Ліам Каннінгем, Домінік Купер, Стівен Макінтош, Нед Деннегі

Сюжет:
Напевно, нікому не треба доводити, що життя у в’язниці - це суцільне пекло. Звичайно, і до нього можна спробувати пристосуватися - вибору все одно немає, залишається змиритися зі своєю участю. Особливо якщо суддя виніс вирок про довічне ув’язнення без права перегляду справи. Але Френк Перрі не бажає миритися з таким станом справ. За стіною у нього залишилася дочка, яка зараз смертельно хвора і дуже потребує допомоги. Заради дівчинки Френк готовий піти на все. І ось Перрі починає готувати план втечі.


Тривалість: 01:41:30
Якість: 1080p
Відео:
кодек: H.263
розмір кадру: 1920х1040
бітрейт: 9 669 кб/с

Аудіо # 1:
мова: українська
переклад: багатоголосий закадровий
кодек: 2.0
бітрейт: 192 кб/с

Аудіо # 2:
мова: українська
переклад: двоголосий закадровий
кодек: 2.0
бітрейт: 192 кб/с

Аудіо # 3:
мова: англійська
переклад: оригінал
кодек: 5.1
бітрейт: 1 509 кб/с

Субтитри:
мова: англійська
тип: програмні (м'які)
формат: *.srt
Info
General
Unique ID : 193663477229289170741965345691584750750 (0x91B23A9F4918BE3BBB60E2619C10E49E)
Format :
Format version : Version 4 / Version 2
File size : 8.20 GiB
Duration : 1 h 41 min
Overall bit rate : 11.6 Mb/s
Encoded date : UTC 2018-08-24 06:41:30
Writing application : v6.1.0 ('Old Devil') built on Mar 4 2013 09:10:42
Writing library : libebml v1.3.0 + v1.4.0

Video
ID : 1
Format : AVC
Format/Info : Advanced Video Codec
Format profile : [email protected]
Format settings : CABAC / 4 Ref Frames
Format settings, CABAC : Yes
Format settings, ReFrames : 4 frames
Codec ID : V_MPEG4/ISO/AVC
Duration : 1 h 41 min
Bit rate : 9 669 kb/s
Width : 1 920 pixels
Height : 1 040 pixels
Display aspect ratio : 1.85:1
Frame rate mode : Constant
Frame rate : 24.000 FPS
Color space : YUV
Chroma subsampling : 4:2:0
Bit depth : 8 bits
Scan type : Progressive
Bits/(Pixel*Frame) : 0.202
Stream size : 6.70 GiB (82%)
Writing library : core 67 r1123 3d78062
Encoding settings : cabac=1 / ref=4 / deblock=1:0:0 / analyse=0x3:0x133 / me=umh / subme=7 / psy_rd=1.0:0.0 / mixed_ref=1 / me_range=16 / chroma_me=1 / trellis=1 / 8x8dct=1 / cqm=0 / deadzone=21,11 / chroma_qp_offset=-4 / threads=3 / nr=0 / decimate=1 / mbaff=0 / bframes=3 / b_pyramid=1 / b_adapt=1 / b_bias=0 / direct=1 / wpredb=1 / keyint=250 / keyint_min=25 / scenecut=40 / rc=2pass / bitrate=9669 / ratetol=1.0 / qcomp=0.60 / qpmin=10 / qpmax=51 / qpstep=4 / cplxblur=20.0 / qblur=0.5 / ip_ratio=1.40 / pb_ratio=1.30 / aq=1:1.00 / zones=140787,146171,q=40
Language : English
Default : Yes
Forced : No

Audio #1
ID : 2
Format : AC-3
Format/Info : Audio Coding 3
Codec ID : A_AC3
Duration : 1 h 41 min
Bit rate mode : Constant
Bit rate : 192 kb/s
Channel(s) : 2 channels
Channel positions : Front: L R
Sampling rate : 48.0 kHz
Frame rate : 31.250 FPS (1536 SPF)
Bit depth : 16 bits
Compression mode : Lossy
Stream size : 139 MiB (2%)
Title : UKR (NTN)
Language : Ukrainian
Service kind : Complete Main
Default : Yes
Forced : Yes

Audio #2
ID : 3
Format : AC-3
Format/Info : Audio Coding 3
Codec ID : A_AC3
Duration : 1 h 41 min
Bit rate mode : Constant
Bit rate : 192 kb/s
Channel(s) : 2 channels
Channel positions : Front: L R
Sampling rate : 48.0 kHz
Frame rate : 31.250 FPS (1536 SPF)
Bit depth : 16 bits
Compression mode : Lossy
Stream size : 139 MiB (2%)
Title : UKR (1+1)
Language : Ukrainian
Service kind : Complete Main
Default : No
Forced : No

Audio #3
ID : 4
Format :
Format/Info : Digital Theater Systems
Codec ID : A_DTS
Duration : 1 h 41 min
Bit rate mode : Constant
Bit rate : 1 509 kb/s
Channel(s) : 6 channels
Channel positions : Front: L C R, Side: L R, LFE
Sampling rate : 48.0 kHz
Frame rate : 93.750 FPS (512 SPF)
Bit depth : 24 bits
Compression mode : Lossy
Stream size : 1.07 GiB (13%)
Language : English
Default : No
Forced : No

Text
ID : 5
Format : UTF-8
Codec ID : S_TEXT/UTF8
Codec ID/Info : UTF-8 Plain Text
Title : ENG
Language : English
Default : Yes
Forced : No

Menu
00:00:00.000 : en:00:00:00.000
00:11:19.250 : en:00:11:19.250
00:21:47.792 : en:00:21:47.792
00:28:44.333 : en:00:28:44.333
00:36:09.333 : en:00:36:09.333
00:46:11.458 : en:00:46:11.458
00:52:53.250 : en:00:52:53.250
00:59:16.917 : en:00:59:16.917
01:06:18.208 : en:01:06:18.208
01:17:20.417 : en:01:17:20.417
01:28:50.167 : en:01:28:50.167
01:37:45.667 : en:01:37:45.667
Скріншоти






За доріжку від НТН дякую п.: krigg070, Arsenfpu
За доріжку від 1+1 дякую п.: DеLight, dvorsky
Особиста подяка пану denixx за надану матеріальну допомогу на підтримку цього і майбутніх релізів.
Джерело:


 Трекер:    Зареєстрований   

Завантажити / скачати фільм українською



відео для новачків



 Зареєстрований:   2018-08-24 09:48
 Розмір:   8.2 GB 
 Оцінка фільму:   10/10 (Голосів: 2)
   
Ваш часовий пояс: GMT + 2 Години

Нова тема   Відповісти