Шість ступенів відчуження / Six Degrees of Separation (1993) 1080p Ukr/Eng | Sub Eng

Нові коментарі

Нова тема   Відповісти
Автор Повідомлення
Anonymous 







2018-08-24 09:33  
Шість ступенів відчуження / Six Degrees of Separation (1993) 1080p Ukr/Eng | Sub Eng

Шість ступенів відчуження / Six Degrees of Separation (1993) 1080p Ukr/Eng | Sub Eng
Альтернативний постер:

Шість ступенів відчуження / Six Degrees of Separation (1993) 1080p Ukr/Eng | Sub Eng


Жанр: драма, психологічний, комедія, детектив
Країна: США



Кінокомпанія: Maiden Movies, Metro-Goldwyn-Mayer (MGM), New Regency Pictures
Режисер: Фред Скепсі
Актори: Стокард Ченнінг, Вілл Сміт, Дональд Сазерленд, Гізер Грем, Ян МакКеллен, Мері Бет Херт, Брюс Девісон, Річард Мазур, Ентоні Майкл Голл, Ерік Тал

Сюжет:
Уїза і Флен, манхеттенські торговці творами мистецтва, відкривають двері свого розкішного пентхауcу Полу, молодому чоловікові, пораненому і пограбованому в Центральному парку. Заявивши, що він - друг їх сина і син знаменитого актора Сідні Пуатьє, Пол чарує їх безліччю п'янких історій і "смаковитих" подробиць. Але коли сплетена ним павутина знаменитих імен починає розкручуватися, він підкидає господарям щось серйозніше, ніж звичайний анекдот до світської вечірки - він дає хід цілій низці подій, які назавжди змінять їхнє життя...


Тривалість: 01:51:51
Якість: 1080p
Відео:
кодек:
розмір кадру: 1920х816
бітрейт: 13,9 Мб/с

Аудіо # 1:
мова: українська
переклад: двоголосий закадровий
кодек: 2.0
бітрейт: 192 кб/с

Аудіо # 2:
мова: англійська
переклад: оригінал
кодек: E- 2.0
бітрейт: 224 кб/с

Субтитри:
мова: англійська
тип: програмні (м'які)
формат: *.srt
Info
General
Unique ID : 188293108900085110627020497211109010990 (0x8DA7EF05573E594F8928392E92B5EE2E)
Format :
Format version : Version 4 / Version 2
File size : 11.4 GiB
Duration : 1 h 51 min
Overall bit rate mode : Variable
Overall bit rate : 14.6 Mb/s
Encoded date : UTC 2018-08-24 06:26:06
Writing application : v6.1.0 ('Old Devil') built on Mar 4 2013 09:10:42
Writing library : libebml v1.3.0 + v1.4.0

Video
ID : 1
Format : AVC
Format/Info : Advanced Video Codec
Format profile : [email protected]
Format settings : CABAC / 4 Ref Frames
Format settings, CABAC : Yes
Format settings, ReFrames : 4 frames
Codec ID : V_MPEG4/ISO/AVC
Duration : 1 h 51 min
Bit rate mode : Variable
Bit rate : 13.9 Mb/s
Maximum bit rate : 15.0 Mb/s
Width : 1 920 pixels
Height : 816 pixels
Display aspect ratio : 2.35:1
Frame rate mode : Constant
Frame rate : 23.976 (24000/1001) FPS
Color space : YUV
Chroma subsampling : 4:2:0
Bit depth : 8 bits
Scan type : Progressive
Bits/(Pixel*Frame) : 0.370
Stream size : 10.9 GiB (95%)
Writing library : core 148 r2623 d5b2374
Encoding settings : cabac=1 / ref=4 / deblock=1:-1:-1 / analyse=0x3:0x133 / me=umh / subme=9 / psy=1 / psy_rd=1.00:0.15 / mixed_ref=1 / me_range=24 / chroma_me=1 / trellis=2 / 8x8dct=1 / cqm=0 / deadzone=21,11 / fast_pskip=1 / chroma_qp_offset=-3 / threads=25 / lookahead_threads=4 / sliced_threads=0 / nr=150 / decimate=1 / interlaced=0 / bluray_compat=0 / constrained_intra=0 / bframes=8 / b_pyramid=2 / b_adapt=2 / b_bias=0 / direct=3 / weightb=1 / open_gop=0 / weightp=2 / keyint=120 / keyint_min=61 / scenecut=0 / intra_refresh=0 / rc_lookahead=120 / rc=crf / mbtree=1 / crf=18.0 / qcomp=0.60 / qpmin=0 / qpmax=69 / qpstep=4 / vbv_maxrate=15000 / vbv_bufsize=31250 / crf_max=0.0 / nal_hrd=vbr / filler=0 / ip_ratio=1.40 / aq=3:1.00
Default : Yes
Forced : No
Color range : Limited
Color primaries : BT.709
Transfer characteristics : BT.709
Matrix coefficients : BT.709
Statistics Tags Issue : v19.0.0 ('Brave Captain') 32-bit 2018-08-13 16:33:40 / v6.1.0 ('Old Devil') built on Mar 4 2013 09:10:42 2018-08-24 06:26:06
FromStats_BitRate : 14196217
FromStats_Duration : 01:51:50.663000000
FromStats_FrameCount : 160895
FromStats_StreamSize : 11908253677

Audio #1
ID : 2
Format : AC-3
Format/Info : Audio Coding 3
Codec ID : A_AC3
Duration : 1 h 51 min
Bit rate mode : Constant
Bit rate : 192 kb/s
Channel(s) : 2 channels
Channel positions : Front: L R
Sampling rate : 48.0 kHz
Frame rate : 31.250 FPS (1536 SPF)
Bit depth : 16 bits
Compression mode : Lossy
Stream size : 154 MiB (1%)
Title : UKR (Enter)
Language : Ukrainian
Service kind : Complete Main
Default : Yes
Forced : Yes

Audio #2
ID : 3
Format : E-AC-3
Format/Info : Enhanced Audio Coding 3
Codec ID : A_EAC3
Duration : 1 h 51 min
Bit rate mode : Constant
Bit rate : 224 kb/s
Channel(s) : 2 channels
Channel positions : Front: L R
Sampling rate : 48.0 kHz
Frame rate : 187.500 FPS (256 SPF)
Compression mode : Lossy
Stream size : 179 MiB (2%)
Language : English
Service kind : Complete Main
Default : No
Forced : No
Statistics Tags Issue : v19.0.0 ('Brave Captain') 32-bit 2018-08-13 16:33:40 / v6.1.0 ('Old Devil') built on Mar 4 2013 09:10:42 2018-08-24 06:26:06
FromStats_BitRate : 224000
FromStats_Duration : 01:51:50.624000000
FromStats_FrameCount : 209707
FromStats_StreamSize : 187897472

Text
ID : 4
Format : UTF-8
Codec ID : S_TEXT/UTF8
Codec ID/Info : UTF-8 Plain Text
Language : English
Default : No
Forced : No
Statistics Tags Issue : v19.0.0 ('Brave Captain') 32-bit 2018-08-13 16:33:40 / v6.1.0 ('Old Devil') built on Mar 4 2013 09:10:42 2018-08-24 06:26:06
FromStats_BitRate : 96
FromStats_Duration : 01:45:38.716000000
FromStats_FrameCount : 2292
FromStats_StreamSize : 76742
Скріншоти









Джерело:


Срібний реліз (на рейтинг впливає 50% завантаженого)
 Трекер:    Зареєстрований   

Завантажити / скачати фільм українською



відео для новачків



 Зареєстрований:   2018-08-24 09:33
 Розмір:   11.42 GB 
 Оцінка фільму:   10/10 (Голосів: 3)
   
Інші релізи
Ваш часовий пояс: GMT + 2 Години

Нова тема   Відповісти