Правила бою / Rules of Engagement (2000) 720p Ukr/Eng | Sub Eng

Нові коментарі

Нова тема   Відповісти
Автор Повідомлення
Anonymous 







2018-08-24 08:51  
Правила бою / Rules of Engagement (2000) 720p Ukr/Eng | Sub Eng

Правила бою / Rules of Engagement (2000) 720p Ukr/Eng | Sub Eng


Жанр: драма, трилер, військовий
Країна: США



Кінокомпанія: Paramount Pictures, Seven Arts Pictures, Munich Film Partners & Company (MFP) ROE Production
Режисер: Вільям Фрідкін
Актори: Томмі Лі Джонс, Семюел Л. Джексон, Гай Пірс, Бен Кінгслі, Брюс Грінвуд, Енн Арчер, Блер Андервуд, Філіп Бейкер Хол, Дейл Дай, Аміду

Сюжет:
Полковник морської піхоти Тері Чайлдерс відправляється на небезпечне спецзавдання в одну з близькосхідних держав, де біля стін американського посольства проводять демонстрацію розлютовані ісламісти. Коли натовп починає штурм будівлі, він за всіма правилами бою відкриває по ньому вогонь, заради порятунку життів посла США і його сім'ї. Відчайдушний патріот, учасник найризикованіших військових кампаній, тепер обвинувачується в убивстві цивільних осіб іншої держави.
Швидко забувши про заслуги героя, уряд вирішує зам'яти міжнародний скандал, шляхом організації галасливого процесу, на якому передбачається звинуватити у всіх смертних гріхах заслуженого полковника-ветерана. Але на суді, який з легкістю розраховували виграти брудні, продажні політики, на захист свого бойового товариша з часів війни у ​​В'єтнамі встає його старий друг, військовий адвокат Гейс Годжес. Завдяки його незалежному розслідуванню відкривається шокуюча правда про події, що відбулися насправді на території посольства і яка мала місце після цього.


Тривалість: 02:07:19
Якість: 720p
Відео:
кодек:
розмір кадру: 1280х486
бітрейт: 5569 кб/с

Аудіо # 1:
мова: українська
переклад: багатоголосий закадровий
кодек: 2.0
бітрейт: 192 кб/с

Аудіо # 2:
мова: англійська
переклад: оригінал
кодек: 5.1
бітрейт: 1509 кб/с

Аудіо # 3:
мова: англійська
переклад: коментарі режисера
кодек: 2.0
бітрейт: 224 кб/с

Субтитри:
мова: англійська
тип: програмні (м'які)
формат: *.srt
Info
General
Unique ID : 177895767206631950893348659572928323162 (0x85D57A7F41FCA14EA83C3E961C829E5A)
Format :
Format version : Version 4 / Version 2
File size : 6.80 GiB
Duration : 2 h 7 min
Overall bit rate : 7 646 kb/s
Encoded date : UTC 2018-08-24 05:43:49
Writing application : v6.1.0 ('Old Devil') built on Mar 4 2013 09:10:42
Writing library : libebml v1.3.0 + v1.4.0

Video
ID : 1
Format : AVC
Format/Info : Advanced Video Codec
Format profile : [email protected]
Format settings : CABAC / 13 Ref Frames
Format settings, CABAC : Yes
Format settings, ReFrames : 13 frames
Codec ID : V_MPEG4/ISO/AVC
Duration : 2 h 7 min
Bit rate : 5 569 kb/s
Width : 1 280 pixels
Height : 486 pixels
Display aspect ratio : 2.634
Frame rate mode : Constant
Frame rate : 24.000 FPS
Color space : YUV
Chroma subsampling : 4:2:0
Bit depth : 8 bits
Scan type : Progressive
Bits/(Pixel*Frame) : 0.373
Stream size : 4.95 GiB (73%)
Title : Rules.of.Engagement.2000.720p.BluRay..-CRiSC
Writing library : core 108 r1788 c764e29
Encoding settings : cabac=1 / ref=13 / deblock=1:-3:-3 / analyse=0x3:0x133 / me=umh / subme=10 / psy=1 / psy_rd=1.00:0.00 / mixed_ref=1 / me_range=48 / chroma_me=1 / trellis=2 / 8x8dct=1 / cqm=0 / deadzone=21,11 / fast_pskip=0 / chroma_qp_offset=-2 / threads=12 / sliced_threads=0 / nr=0 / decimate=0 / interlaced=0 / constrained_intra=0 / bframes=10 / b_pyramid=2 / b_adapt=2 / b_bias=0 / direct=1 / weightb=1 / open_gop=0 / weightp=2 / keyint=250 / keyint_min=24 / scenecut=40 / intra_refresh=0 / rc_lookahead=40 / rc=crf / mbtree=0 / crf=17.5 / qcomp=0.60 / qpmin=10 / qpmax=51 / qpstep=4 / vbv_maxrate=50000 / vbv_bufsize=62500 / crf_max=0.0 / ip_ratio=1.40 / pb_ratio=1.30 / aq=1:0.80 / nal_hrd=none
Language : English
Default : Yes
Forced : No

Audio #1
ID : 2
Format : AC-3
Format/Info : Audio Coding 3
Codec ID : A_AC3
Duration : 2 h 7 min
Bit rate mode : Constant
Bit rate : 192 kb/s
Channel(s) : 2 channels
Channel positions : Front: L R
Sampling rate : 48.0 kHz
Frame rate : 31.250 FPS (1536 SPF)
Bit depth : 16 bits
Compression mode : Lossy
Stream size : 175 MiB (3%)
Title : UKR (AMC)
Language : Ukrainian
Service kind : Complete Main
Default : Yes
Forced : Yes

Audio #2
ID : 3
Format :
Format/Info : Digital Theater Systems
Codec ID : A_DTS
Duration : 2 h 7 min
Bit rate mode : Constant
Bit rate : 1 509 kb/s
Channel(s) : 6 channels
Channel positions : Front: L C R, Side: L R, LFE
Sampling rate : 48.0 kHz
Frame rate : 93.750 FPS (512 SPF)
Bit depth : 24 bits
Compression mode : Lossy
Stream size : 1.34 GiB (20%)
Title : Original
Language : English
Default : No
Forced : No

Audio #3
ID : 4
Format : AC-3
Format/Info : Audio Coding 3
Codec ID : A_AC3
Duration : 2 h 7 min
Bit rate mode : Constant
Bit rate : 224 kb/s
Channel(s) : 2 channels
Channel positions : Front: L R
Sampling rate : 48.0 kHz
Frame rate : 31.250 FPS (1536 SPF)
Bit depth : 16 bits
Compression mode : Lossy
Stream size : 204 MiB (3%)
Title : Director's Commentary
Language : English
Service kind : Complete Main
Default : No
Forced : No

Text
ID : 5
Format : UTF-8
Codec ID : S_TEXT/UTF8
Codec ID/Info : UTF-8 Plain Text
Language : English
Default : No
Forced : No

Menu
00:00:00.000 : en:Battle of Ca Lu
00:09:21.833 : en:Distinguished Service
00:14:27.208 : en:Embassy Siege
00:23:16.292 : en:International Crisis
00:31:01.542 : en:General Court-Martial
00:40:02.333 : en:Weak Lawyer
00:49:24.708 : en:Making a Case
00:56:47.000 : en:Yemen Investigation
01:02:45.458 : en:Career at Risk
01:11:50.167 : en:Opening Arguments
01:21:39.208 : en:Doctor Ahmar
01:27:59.125 : en:Withholding Evidence
01:37:41.750 : en:Childers' Testimony
01:45:06.500 : en:Summation
01:54:21.417 : en:Verdict
02:00:22.708 : en:End Credits
Скріншоти









За українську доріжку подяка п.: Sando7, Arsenfpu
Особиста подяка пану denixx за надану матеріальну допомогу на підтримку цього і майбутніх релізів.
Джерело:


Срібний реліз (на рейтинг впливає 50% завантаженого)
 Трекер:    Зареєстрований   

Завантажити / скачати фільм українською



відео для новачків



 Зареєстрований:   2018-08-24 08:51
 Розмір:   6.8 GB 
 Оцінка фільму:   10/10 (Голосів: 4)
   
Інші релізи
   Правила бою / Rules of Engagement (2000) Ukr/Eng Arsenfpu  5 / 0   2.13 GB   2017-10-12 23:54 
Ваш часовий пояс: GMT + 2 Години

Нова тема   Відповісти