Хакери / Hackers (1995) 1080p 3xUkr/Eng | Sub Eng

Нові коментарі

Нова тема   Відповісти
Останній раз роздавалося drop_plz (2018-12-18)
Автор Повідомлення
Anonymous 







2018-08-24 05:34  
Хакери / Hackers (1995) 1080p 3xUkr/Eng | Sub Eng

Хакери / Hackers (1995) 1080p 3xUkr/Eng | Sub Eng


Жанр: комедія, кримінальний, драма, трилер
Країна: США



Кінокомпанія: United Artists, Suftley
Режисер: Айєн Софтлі
Актори: Джонні Лі Міллер, Анджеліна Джолі, Джессі Бретфорд, Метью Ліллард, Лоуренс Мейсон, Ренолі Сантьяґо, Фішер Стівенс, Альберта Вотсон

Сюжет:
В 1988 році в Сієтлі батьки одинадцятирічного комп'ютерного генія (хакера) Дейва Мерфі були оштрафовані на 45 тисяч доларів, а сам він був засуджений на сім років умовно за розповсюдження віруса в 1507 мережах і за виклик паніки на біржі Волл-Стріт. Йому було заборонено користуватись комп'ютером і телефоном до 18 років. Пройшло 7 років і в новій школі в Нью-Йорку він познайомився з компанією таких самих хакерів. Один з них випадково проникнув в мережу міжнародної нафто-транспортної корпорації і переписав файл, який розвінчує діяльність глави служби комп'ютерної безпеки, - той використовував "черв'яка" для крадіжки 25 млн. доларів. Злодій, дізнавшись про це, вирішив звалити усю вину на хакерів. Тоді всі хакери світу об'єднались через інтернет і почали війну з цинічним злодієм. Але чи зуміють вони отримати перемогу до 9 години ранку наступного дня -- саме в цей час призначено їхній арешт, а "світить" їм до 30 років тюрми?


Тривалість: 01:45:23
Якість: 1080p
Відео:
кодек:
розмір кадру: 1920x822
бітрейт: 9615 Кб/с

Аудіо # 1:
мова: українська
переклад: двоголосий закадровий
кодек: 2.0
бітрейт: 192 кб/с

Аудіо # 2:
мова: українська
переклад: багатоголосий закадровий
кодек: 2.0
бітрейт: 192 кб/с

Аудіо # 3:
мова: українська
переклад: багатоголосий закадровий
кодек: 2.0
бітрейт: 192 кб/с

Аудіо # 4:
мова: англійська
переклад: оригінал
кодек: 2.0
бітрейт: 1509 кб/с

Субтитри:
мова: англійська
тип: програмні (м'які)
формат: *.srt
Info
General
Unique ID : 231685281928683479229080795252336945765 (0xAE4CF653A889503F910280E2AFE8EA65)
Format :
Format version : Version 4 / Version 2
File size : 8.79 GiB
Duration : 1 h 45 min
Overall bit rate : 11.9 Mb/s
Encoded date : UTC 2018-08-24 03:28:41
Writing application : v6.1.0 ('Old Devil') built on Mar 4 2013 09:10:42
Writing library : libebml v1.3.0 + v1.4.0

Video
ID : 1
Format : AVC
Format/Info : Advanced Video Codec
Format profile : [email protected]
Format settings : CABAC / 4 Ref Frames
Format settings, CABAC : Yes
Format settings, ReFrames : 4 frames
Codec ID : V_MPEG4/ISO/AVC
Duration : 1 h 45 min
Bit rate : 9 615 kb/s
Width : 1 920 pixels
Height : 822 pixels
Display aspect ratio : 2.35:1
Frame rate mode : Constant
Frame rate : 23.976 (24000/1001) FPS
Color space : YUV
Chroma subsampling : 4:2:0
Bit depth : 8 bits
Scan type : Progressive
Bits/(Pixel*Frame) : 0.254
Stream size : 7.08 GiB (81%)
Writing library : core 146 r2538 121396c
Encoding settings : cabac=1 / ref=4 / deblock=1:-3:-3 / analyse=0x3:0x113 / me=umh / subme=10 / psy=1 / psy_rd=1.00:0.15 / mixed_ref=1 / me_range=32 / chroma_me=1 / trellis=2 / 8x8dct=1 / cqm=0 / deadzone=21,11 / fast_pskip=1 / chroma_qp_offset=-3 / threads=6 / lookahead_threads=1 / sliced_threads=0 / nr=0 / decimate=1 / interlaced=0 / bluray_compat=0 / constrained_intra=0 / bframes=8 / b_pyramid=2 / b_adapt=2 / b_bias=0 / direct=1 / weightb=1 / open_gop=0 / weightp=2 / keyint=230 / keyint_min=23 / scenecut=40 / intra_refresh=0 / rc_lookahead=40 / rc=crf / mbtree=0 / crf=18.4 / qcomp=0.60 / qpmin=0 / qpmax=69 / qpstep=4 / vbv_maxrate=40000 / vbv_bufsize=50000 / crf_max=0.0 / nal_hrd=none / filler=0 / ip_ratio=1.40 / pb_ratio=1.30 / aq=1:1.00
Language : English
Default : Yes
Forced : No
Statistics Tags Issue : v8.2.0 ('World of Adventure') 64bit 2015-08-13 00:27:29 / v6.1.0 ('Old Devil') built on Mar 4 2013 09:10:42 2018-08-24 03:28:41
FromStats_BitRate : 9851449
FromStats_Duration : 01:45:22.066000000
FromStats_FrameCount : 151578
FromStats_StreamSize : 7785188853

Audio #1
ID : 2
Format : AC-3
Format/Info : Audio Coding 3
Codec ID : A_AC3
Duration : 1 h 45 min
Bit rate mode : Constant
Bit rate : 192 kb/s
Channel(s) : 2 channels
Channel positions : Front: L R
Sampling rate : 48.0 kHz
Frame rate : 31.250 FPS (1536 SPF)
Bit depth : 16 bits
Compression mode : Lossy
Stream size : 145 MiB (2%)
Title : UKR (TET)
Language : Ukrainian
Service kind : Complete Main
Default : Yes
Forced : Yes

Audio #2
ID : 3
Format : AC-3
Format/Info : Audio Coding 3
Codec ID : A_AC3
Duration : 1 h 45 min
Bit rate mode : Constant
Bit rate : 192 kb/s
Channel(s) : 2 channels
Channel positions : Front: L R
Sampling rate : 48.0 kHz
Frame rate : 31.250 FPS (1536 SPF)
Bit depth : 16 bits
Compression mode : Lossy
Stream size : 145 MiB (2%)
Title : UKR (AMC)
Language : Ukrainian
Service kind : Complete Main
Default : No
Forced : No

Audio #3
ID : 4
Format : AC-3
Format/Info : Audio Coding 3
Codec ID : A_AC3
Duration : 1 h 45 min
Bit rate mode : Constant
Bit rate : 192 kb/s
Channel(s) : 2 channels
Channel positions : Front: L R
Sampling rate : 48.0 kHz
Frame rate : 31.250 FPS (1536 SPF)
Bit depth : 16 bits
Compression mode : Lossy
Stream size : 145 MiB (2%)
Title : UKR (ICTV)
Language : Ukrainian
Service kind : Complete Main
Default : No
Forced : No

Audio #4
ID : 5
Format :
Format/Info : Digital Theater Systems
Codec ID : A_DTS
Duration : 1 h 45 min
Bit rate mode : Constant
Bit rate : 1 509 kb/s
Channel(s) : 2 channels
Channel positions : Front: L R
Sampling rate : 48.0 kHz
Frame rate : 93.750 FPS (512 SPF)
Bit depth : 24 bits
Compression mode : Lossy
Stream size : 1.11 GiB (13%)
Language : English
Default : No
Forced : No
Statistics Tags Issue : v8.2.0 ('World of Adventure') 64bit 2015-08-13 00:27:29 / v6.1.0 ('Old Devil') built on Mar 4 2013 09:10:42 2018-08-24 03:28:41
FromStats_BitRate : 1508999
FromStats_Duration : 01:45:23.030000000
FromStats_FrameCount : 592784
FromStats_StreamSize : 1192681472

Text
ID : 6
Format : UTF-8
Codec ID : S_TEXT/UTF8
Codec ID/Info : UTF-8 Plain Text
Default : No
Forced : No
Statistics Tags Issue : v8.2.0 ('World of Adventure') 64bit 2015-08-13 00:27:29 / v6.1.0 ('Old Devil') built on Mar 4 2013 09:10:42 2018-08-24 03:28:41
FromStats_BitRate : 64
FromStats_Duration : 01:41:36.005000000
FromStats_FrameCount : 1483
FromStats_StreamSize : 49490
Скріншоти








За доріжки від ТЕТ та ICTV дякую п. patriot2305, Sando7
За доріжку від amc дякую п. slavik_v_z, Arsenfpu
За постер дякую пану alexander_bortnyk
Особиста подяка пану denixx за надану матеріальну допомогу на підтримку цього і майбутніх релізів.
Джерело:


Срібний реліз (на рейтинг впливає 50% завантаженого)
 Трекер:    Зареєстрований   

Завантажити / скачати фільм українською



відео для новачків



 Зареєстрований:   2018-08-24 05:34
 Розмір:   8.79 GB 
 Оцінка фільму:   8.8/10 (Голосів: 4)
   
Інші релізи
   Хакери / Hackers [Remastered] (1995) 1080p H.265 3xUkr/Eng | Sub Eng -Star-Lord-  3 / 0   5.81 GB   2018-09-25 11:12 
   Хакери / Hackers (1995) 3xUkr/Eng Arsenfpu  6 / 0   2.19 GB   2017-07-12 11:43 
   Хакери / Hackers (1995) [MP4, 480x] apvAltisimo  0 / 0   477 MB   2016-08-17 15:21 
Ваш часовий пояс: GMT + 2 Години

Нова тема   Відповісти