Це могло статися з тобою / It Could Happen to You (1994) 1080p Ukr/Eng | Sub Eng

Нові коментарі

Нова тема   Відповісти
Автор Повідомлення
Anonymous 







2018-08-23 20:21  
Це могло статися з тобою / It Could Happen to You (1994) 1080p Ukr/Eng | Sub Eng

Це могло статися з тобою / It Could Happen to You (1994) 1080p Ukr/Eng | Sub Eng


Жанр: мелодрама, драма, комедія
Країна: США



Кінокомпанія: TriStar Pictures
Режисер: Ендрю Бергман
Актори: Ніколас Кейдж, Бріджет Фонда, Розі Перез, Венделл Пірс, Айзек Гейес, Сеймур Кессел, Стенлі Туччі, Річард Дженкінс, Ред Баттонс

Сюжет:
Дуже чесний і простакуватий поліцейський на ім'я Чарлі купує лотерейний квиток на зразок нашого спортлото і виграє чотири мільйони доларів. Дружина його в захваті, а він, бідолаха, пообіцяв половину виграшу офіціантці, оскільки у нього не вистачило грошей на чайові. Інший би і думати про це забув, але Чарлі дав їй слово і мусить його дотриматися.

Середненька романтична комедія “у стилі Капри”, знята без особливого натхнення. Сюжетні перипетії великого інтересу не викликають, і добрі актори нічого надзвичайного не демонструють.


Тривалість: 01:41:31
Якість: 1080p
Відео:
кодек:
розмір кадру: 1920x1040
бітрейт: 10,4 Мб/с

Аудіо # 1:
мова: українська
переклад: багатоголосий закадровий
кодек: 5.1
бітрейт: 384 кб/с

Аудіо # 2:
мова: англійська
переклад: оригінал
кодек: 5.1
бітрейт: 640 кб/с

Субтитри:
мова: англійська
тип: програмні (м'які)
формат: *.srt
Info
General
Unique ID : 174291014331177917367689844454664901429 (0x831F3A7565184657B24B4E4D9B0F1335)
Format :
Format version : Version 4 / Version 2
File size : 7.95 GiB
Duration : 1 h 41 min
Overall bit rate : 11.2 Mb/s
Encoded date : UTC 2018-08-23 17:14:50
Writing application : v6.1.0 ('Old Devil') built on Mar 4 2013 09:10:42
Writing library : libebml v1.3.0 + v1.4.0

Video
ID : 1
Format : AVC
Format/Info : Advanced Video Codec
Format profile : [email protected]
Format settings : CABAC / 4 Ref Frames
Format settings, CABAC : Yes
Format settings, ReFrames : 4 frames
Codec ID : V_MPEG4/ISO/AVC
Duration : 1 h 41 min
Bit rate : 10.4 Mb/s
Width : 1 920 pixels
Height : 1 040 pixels
Display aspect ratio : 1.85:1
Frame rate mode : Constant
Frame rate : 23.976 FPS
Color space : YUV
Chroma subsampling : 4:2:0
Bit depth : 8 bits
Scan type : Progressive
Bits/(Pixel*Frame) : 0.218
Stream size : 7.07 GiB (89%)
Writing library : core 79 r1342kMod e8501ef
Encoding settings : cabac=1 / ref=4 / deblock=1:-3:-3 / analyse=0x3:0x133 / me=umh / subme=10 / psy=1 / psy_rd=1.0:0.1 / mixed_ref=1 / me_range=32 / chroma_me=1 / trellis=2 / 8x8dct=1 / cqm=0 / deadzone=21,11 / chroma_qp_offset=-3 / threads=6 / nr=0 / decimate=1 / mbaff=0 / constrained_intra=0 / bframes=7 / b_pyramid=0 / b_adapt=2 / b_bias=0 / direct=1 / wpredb=1 / wpredp=2 / keyint=250 / keyint_min=25 / scenecut=40 / rc_lookahead=50 / rc=abr / mbtree=1 / bitrate=10450 / ratetol=1.0 / qcomp=0.60 / qpmin=10 / qpmax=51 / qpstep=4 / ip_ratio=1.40 / aq=1:1.00
Default : Yes
Forced : No

Audio #1
ID : 2
Format : AC-3
Format/Info : Audio Coding 3
Codec ID : A_AC3
Duration : 1 h 41 min
Bit rate mode : Constant
Bit rate : 384 kb/s
Channel(s) : 6 channels
Channel positions : Front: L C R, Side: L R, LFE
Sampling rate : 48.0 kHz
Frame rate : 31.250 FPS (1536 SPF)
Bit depth : 16 bits
Compression mode : Lossy
Stream size : 279 MiB (3%)
Title : UKR (ТРУ "Україна")
Language : Ukrainian
Service kind : Complete Main
Default : Yes
Forced : Yes

Audio #2
ID : 3
Format : AC-3
Format/Info : Audio Coding 3
Codec ID : A_AC3
Duration : 1 h 41 min
Bit rate mode : Constant
Bit rate : 640 kb/s
Channel(s) : 6 channels
Channel positions : Front: L C R, Side: L R, LFE
Sampling rate : 48.0 kHz
Frame rate : 31.250 FPS (1536 SPF)
Bit depth : 16 bits
Compression mode : Lossy
Stream size : 465 MiB (6%)
Title : ENG
Language : English
Service kind : Complete Main
Default : No
Forced : No

Text
ID : 4
Format : UTF-8
Codec ID : S_TEXT/UTF8
Codec ID/Info : UTF-8 Plain Text
Title : ENG
Language : English
Default : Yes
Forced : No
Скріншоти






За українську доріжку подяка п.: karvai0, imonko
Особиста подяка пану denixx за надану матеріальну допомогу на підтримку цього і майбутніх релізів.
Джерело:


Срібний реліз (на рейтинг впливає 50% завантаженого)
 Трекер:    Зареєстрований   

Завантажити / скачати фільм українською



відео для новачків



 Зареєстрований:   2018-08-23 20:21
 Розмір:   7.95 GB 
 Оцінка фільму:   10/10 (Голосів: 1)
   
Інші релізи
Ваш часовий пояс: GMT + 2 Години

Нова тема   Відповісти