Хардбол / Hard Ball (2001) 1080p 2xUkr/Eng | Sub Eng

Нові коментарі

Нова тема   Відповісти
Автор Повідомлення
Anonymous 







2018-08-23 19:56  
Хардбол / Hard Ball (2001) 1080p 2xUkr/Eng | Sub Eng

Хардбол / Hard Ball (2001) 1080p 2xUkr/Eng | Sub Eng


Жанр: драма, спорт
Країна: США



Кінокомпанія: Fireworks Pictures, GHS Productions KG, Munich Film Partners & Company (MFP) GHS Productions
Режисер: Браян Роббінс
Актори: Кіану Рівз, Дайан Лейн, Джон Гокс, Браян Хірн, Джуліан Гріффіт, Майкл Б. Джордан, А. Делон Елліс мол., Крістофер Лофтон, Майкл Перкінс, Брайан М. Рід

Сюжет:
Коннор О'Ніл (Рівз) - завзятий гравець. Заборгувавши одного разу крупну суму букмекерам, які не посоромляться застосувати до нього силові заходи, він звертається по допомогу до свого друга. Замість грошей той пропонує йому роботу - стати на час тренером дитячої бейсбольної команди, що складається з одних важких підлітків, до того ж чорношкірих. Зрозумівши, що це його єдиний шанс, Коннор хай і неохоче, але погоджується.


Тривалість: 01:46:03
Якість: 1080p
Відео:
кодек:
розмір кадру: 1920х1080
бітрейт: 13,9 Мб/с

Аудіо # 1:
мова: українська
переклад: багатоголосий закадровий
кодек: 2.0
бітрейт: 192 кб/с

Аудіо # 2:
мова: українська
переклад: багатоголосий закадровий
кодек: 5.1
бітрейт: 384 кб/с

Аудіо # 3:
мова: англійська
переклад: оригінал
кодек: E- 5.1
бітрейт: 640 кб/с

Субтитри:
мова: англійська
тип: програмні (м'які)
формат: *.srt
Info
General
Unique ID : 231098730028472153244396152461232459913 (0xADDBFF15D9DA5DD191FE1516D9985089)
Format :
Format version : Version 4 / Version 2
File size : 11.4 GiB
Duration : 1 h 46 min
Overall bit rate mode : Variable
Overall bit rate : 15.4 Mb/s
Encoded date : UTC 2018-08-23 16:41:12
Writing application : v6.1.0 ('Old Devil') built on Mar 4 2013 09:10:42
Writing library : libebml v1.3.0 + v1.4.0

Video
ID : 1
Format : AVC
Format/Info : Advanced Video Codec
Format profile : [email protected]
Format settings : CABAC / 4 Ref Frames
Format settings, CABAC : Yes
Format settings, ReFrames : 4 frames
Codec ID : V_MPEG4/ISO/AVC
Duration : 1 h 46 min
Bit rate mode : Variable
Bit rate : 13.9 Mb/s
Maximum bit rate : 15.0 Mb/s
Width : 1 920 pixels
Height : 1 080 pixels
Display aspect ratio : 16:9
Frame rate mode : Constant
Frame rate : 23.976 (24000/1001) FPS
Color space : YUV
Chroma subsampling : 4:2:0
Bit depth : 8 bits
Scan type : Progressive
Bits/(Pixel*Frame) : 0.280
Stream size : 10.3 GiB (90%)
Writing library : core 148 r2623 d5b2374
Encoding settings : cabac=1 / ref=4 / deblock=1:-1:-1 / analyse=0x3:0x133 / me=umh / subme=9 / psy=1 / psy_rd=1.00:0.15 / mixed_ref=1 / me_range=24 / chroma_me=1 / trellis=2 / 8x8dct=1 / cqm=0 / deadzone=21,11 / fast_pskip=1 / chroma_qp_offset=-3 / threads=34 / lookahead_threads=5 / sliced_threads=0 / nr=150 / decimate=1 / interlaced=0 / bluray_compat=0 / constrained_intra=0 / bframes=8 / b_pyramid=2 / b_adapt=2 / b_bias=0 / direct=3 / weightb=1 / open_gop=0 / weightp=2 / keyint=120 / keyint_min=61 / scenecut=0 / intra_refresh=0 / rc_lookahead=120 / rc=crf / mbtree=1 / crf=18.0 / qcomp=0.60 / qpmin=0 / qpmax=69 / qpstep=4 / vbv_maxrate=15000 / vbv_bufsize=31250 / crf_max=0.0 / nal_hrd=vbr / filler=0 / ip_ratio=1.40 / aq=3:1.00
Default : Yes
Forced : No
Color range : Limited
Color primaries : BT.709
Transfer characteristics : BT.709
Matrix coefficients : BT.709
Statistics Tags Issue : v15.0.0 ('Duel with the Devil') 64-bit 2017-09-03 08:29:49 / v6.1.0 ('Old Devil') built on Mar 4 2013 09:10:42 2018-08-23 16:41:12
FromStats_BitRate : 14209677
FromStats_Duration : 01:46:03.023000000
FromStats_FrameCount : 152560
FromStats_StreamSize : 11302063061

Audio #1
ID : 2
Format : AC-3
Format/Info : Audio Coding 3
Codec ID : A_AC3
Duration : 1 h 46 min
Bit rate mode : Constant
Bit rate : 192 kb/s
Channel(s) : 2 channels
Channel positions : Front: L R
Sampling rate : 48.0 kHz
Frame rate : 31.250 FPS (1536 SPF)
Bit depth : 16 bits
Compression mode : Lossy
Delay relative to video : 987 ms
Stream size : 146 MiB (1%)
Title : UKR (AMC)
Language : Ukrainian
Service kind : Complete Main
Default : Yes
Forced : Yes

Audio #2
ID : 3
Format : AC-3
Format/Info : Audio Coding 3
Codec ID : A_AC3
Duration : 1 h 46 min
Bit rate mode : Constant
Bit rate : 384 kb/s
Channel(s) : 6 channels
Channel positions : Front: L C R, Side: L R, LFE
Sampling rate : 48.0 kHz
Frame rate : 31.250 FPS (1536 SPF)
Bit depth : 16 bits
Compression mode : Lossy
Delay relative to video : 987 ms
Stream size : 291 MiB (2%)
Title : UKR (Kino)
Language : Ukrainian
Service kind : Complete Main
Default : No
Forced : No

Audio #3
ID : 4
Format : E-AC-3
Format/Info : Enhanced Audio Coding 3
Codec ID : A_EAC3
Duration : 1 h 46 min
Bit rate mode : Constant
Bit rate : 640 kb/s
Channel(s) : 6 channels
Channel positions : Front: L C R, Side: L R, LFE
Sampling rate : 48.0 kHz
Frame rate : 187.500 FPS (256 SPF)
Compression mode : Lossy
Stream size : 485 MiB (4%)
Title : English
Language : English
Service kind : Complete Main
Default : No
Forced : No
Statistics Tags Issue : v15.0.0 ('Duel with the Devil') 64-bit 2017-09-03 08:29:49 / v6.1.0 ('Old Devil') built on Mar 4 2013 09:10:42 2018-08-23 16:41:12
FromStats_BitRate : 640000
FromStats_Duration : 01:46:02.976000000
FromStats_FrameCount : 198843
FromStats_StreamSize : 509038080

Text
ID : 5
Format : UTF-8
Codec ID : S_TEXT/UTF8
Codec ID/Info : UTF-8 Plain Text
Title : English
Language : English
Default : No
Forced : No
Statistics Tags Issue : v15.0.0 ('Duel with the Devil') 64-bit 2017-09-03 08:29:49 / v6.1.0 ('Old Devil') built on Mar 4 2013 09:10:42 2018-08-23 16:41:12
FromStats_BitRate : 69
FromStats_Duration : 01:45:22.649000000
FromStats_FrameCount : 1366
FromStats_StreamSize : 54770

Menu
00:00:00.330 : en:00:00:00.330
00:00:33.213 : en:00:00:33.213
00:03:33.268 : en:00:03:33.268
00:04:28.421 : en:00:04:28.421
00:07:01.558 : en:00:07:01.558
00:09:18.922 : en:00:09:18.922
00:15:22.125 : en:00:15:22.125
00:20:51.141 : en:00:20:51.141
00:23:28.159 : en:00:23:28.159
00:26:31.170 : en:00:26:31.170
00:28:20.182 : en:00:28:20.182
00:30:22.190 : en:00:30:22.190
00:31:38.208 : en:00:31:38.208
00:34:41.244 : en:00:34:41.244
00:40:40.263 : en:00:40:40.263
00:43:50.278 : en:00:43:50.278
00:46:24.285 : en:00:46:24.285
00:47:32.303 : en:00:47:32.303
00:50:32.325 : en:00:50:32.325
00:54:14.342 : en:00:54:14.342
00:56:55.385 : en:00:56:55.385
01:04:09.409 : en:01:04:09.409
01:08:09.435 : en:01:08:09.435
01:12:25.446 : en:01:12:25.446
01:14:22.460 : en:01:14:22.460
01:16:43.477 : en:01:16:43.477
01:19:30.515 : en:01:19:30.515
01:25:51.532 : en:01:25:51.532
01:28:36.569 : en:01:28:36.569
01:34:47.583 : en:01:34:47.583
01:37:08.612 : en:01:37:08.612
01:41:55.636 : en:01:41:55.636
Скріншоти








За доріжку від КІНО дякую п. JACKUS, Hulk1987
За доріжку від amc дякую п. Sando7, Arsenfpu
За постер подяка Hulk1987.
Особиста подяка пану denixx за надану матеріальну допомогу на підтримку цього і майбутніх релізів.
Джерело:


Срібний реліз (на рейтинг впливає 50% завантаженого)
 Трекер:    Зареєстрований   

Завантажити / скачати фільм українською



відео для новачків



 Зареєстрований:   2018-08-23 19:56
 Розмір:   11.43 GB 
 Оцінка фільму:   10/10 (Голосів: 1)
   
Інші релізи
   Хардбол / Hard Ball (2001) 2xUkr Arsenfpu  4 / 0   1.51 GB   2016-10-15 14:40 
Ваш часовий пояс: GMT + 2 Години

Нова тема   Відповісти